Пятеро ядовитых / The Five Deadly Venoms / Wu du (Чанг Че / Chang Cheh) [1978 г., боевые искусства, HDRip] (VOx2)

Ответить на тему
 
Автор
Сообщение

Пост 14-Ноя-2011 22:07

[Q] 

Novvy

Корсар

Пятеро ядовитых -The Five Deadly Venoms-Wu du-«Pick Your Poison!»- Год выпуска: 1978
Мировая премьера: 12 августа 1978
Производство: Гонконг
Жанр: боевые искусства
Продолжительность: 01:41:35
Перевод #1: Профессиональный (одноголосый, закадровый, студийный "TV1000")
Перевод #2: Профессиональный (одноголосый, закадровый)-Режиссер: Чанг Че / Chang Cheh-В ролях: Шенг Чианг, Филип Квок, Фенг Лу, Вэй Пай, Чиен Сунь, Менг Ло, Ланг Вэй Ванг, Фенг Ку, Шу Пей Сунь, Лью Хуанг Ших-Описание: Умирающий учитель кунг-фу просит своего студента найти пятерых своих бывших учеников, разбредшихся по свету. Каждый из них обучался одному определенному стилю: Сороконожка, Змея, Скорпион, Ящерица и Жаба — и эти пятеро в данный момент ищут сокровища, которые завещал Клану Ядовитых какой-то богатый старик. Герой Сун Чьена должен найти их, узнать, во зло или во благо они собираются использовать эти деньги, и если во зло, убить всех ослушавшихся. Дело осложняется тем, что не все из этих пятерых знают друг друга, а также они не знают, что это за старик, владеющий такими деньгами, что вынуждает героев разбиться на два лагеря, члены каждого из которых не знают оставшихся в лицо.-
КиноПоиск
IMDB
-Источник/Качество: HDRip
Формат: AVI
Видео кодек: XviD
Аудио кодек: AC3
Видео: 720x304, 23.976 fps, 1664 kbps
Аудио #1: Russian, 192 kbps, 2 ch, 48.0 kHz
Аудио #2: Russian, 192 kbps, 2 ch, 48.0 kHz-
Код:
General
Complete name                    : D:\Фильмы\5_zlodeev.avi
Format                           : AVI
Format/Info                      : Audio Video Interleave
File size                        : 1.46 GiB
Duration                         : 1h 41mn
Overall bit rate                 : 2 063 Kbps
Writing application              : VirtualDubMod 1.5.10.2 (build 2540/release)
Writing library                  : VirtualDubMod build 2540/release
Video
ID                               : 0
Format                           : MPEG-4 Visual
Format profile                   : Advanced [email protected]
Format settings, BVOP            : 1
Format settings, QPel            : No
Format settings, GMC             : No warppoints
Format settings, Matrix          : Custom
Codec ID                         : XVID
Codec ID/Hint                    : XviD
Duration                         : 1h 41mn
Bit rate                         : 1 665 Kbps
Width                            : 720 pixels
Height                           : 304 pixels
Display aspect ratio             : 2.35:1
Frame rate                       : 23.976 fps
Color space                      : YUV
Chroma subsampling               : 4:2:0
Bit depth                        : 8 bits
Scan type                        : Progressive
Compression mode                 : Lossy
Bits/(Pixel*Frame)               : 0.317
Stream size                      : 1.18 GiB (81%)
Writing library                  : XviD 63
Audio #1
ID                               : 1
Format                           : AC-3
Format/Info                      : Audio Coding 3
Mode extension                   : CM (complete main)
Codec ID                         : 2000
Duration                         : 1h 41mn
Bit rate mode                    : Constant
Bit rate                         : 192 Kbps
Channel(s)                       : 2 channels
Channel positions                : Front: L R
Sampling rate                    : 48.0 KHz
Bit depth                        : 16 bits
Compression mode                 : Lossy
Stream size                      : 140 MiB (9%)
Alignment                        : Split accross interleaves
Interleave, duration             : 42 ms (1.00 video frame)
Interleave, preload duration     : 500 ms
Audio #2
ID                               : 2
Format                           : AC-3
Format/Info                      : Audio Coding 3
Mode extension                   : CM (complete main)
Codec ID                         : 2000
Duration                         : 1h 41mn
Bit rate mode                    : Constant
Bit rate                         : 192 Kbps
Channel(s)                       : 2 channels
Channel positions                : Front: L R
Sampling rate                    : 48.0 KHz
Bit depth                        : 16 bits
Compression mode                 : Lossy
Stream size                      : 140 MiB (9%)
Alignment                        : Split accross interleaves
Interleave, duration             : 42 ms (1.00 video frame)
Interleave, preload duration     : 500 ms
-











Download / Скачать

Хотите скачать бесплатно? Зарегистрируйтесь на сайте (ссылка на регистрацию). Pirat.ca - самый быстрый торрент трекер в рунете!

Как скачивать  ·   Что такое торрент  ·   Рейтинг и ограничения

Пост 15-Ноя-2011 06:31 (спустя 8 часов)

Топик был перенесен из форума Художественные фильмы (Зарубежное кино) в форум Азиатское кино

Skinwalker
 

CHARLI2236

1232

Пост 27-Ноя-2011 11:55 (спустя 12 дней)

[Q] 

СПАСИБО

_________________
[Профиль]  [ЛС] 

AndyFox

Корсар

379

Пост 06-Янв-2014 00:17 (спустя 2 года 1 месяц)

[Q] 

Спасибо за ядовитое кино. =)

_________________
Torrent.
[Профиль]  [ЛС] 

ZAMOK

Корсар

Пост 09-Май-2015 18:35 (спустя 1 год 4 месяца)

[Q] 

Ку три раза

_________________
Не бойся того,с чем не сталкивался.
[Профиль]  [ЛС] 

Дэн

Гроза морей

Пост 19-Авг-2017 20:00 (спустя 2 года 3 месяца)

[Q] 

.Балгодарю за Фильм!
[Профиль]  [ЛС] 
Показать сообщения:    
Ответить на тему

Текущее время: Сегодня 08:41

Часовой пояс: GMT + 4



Вы не можете начинать темы
Вы не можете отвечать на сообщения
Вы не можете редактировать свои сообщения
Вы не можете удалять свои сообщения
Вы не можете голосовать в опросах
Вы не можете прикреплять файлы к сообщениям
Вы не можете скачивать файлы

Майнать ▼