Дуэль до смерти / Duel To The Death / Xian si jue (Сиу-Тунг Чинг / Siu-Tung Ching) [1983 г., боевик, драма, DVDRip] (VO)

Ответить на тему
 
Автор
Сообщение

Пост 12-Ноя-2011 12:40

[Q] 

Novvy

Корсар

-Дуэль до смерти-Duel To The Death-Xian si jue- Год выпуска: 1983
Мировая премьера: 13 января 1983
Производство: Гонконг
Жанр: боевик, драма
Продолжительность: 01:23:38
Перевод: Профессиональный (одноголосый, закадровый)-Режиссер: Сиу-Тунг Чинг / Siu-Tung Ching-В ролях: Норман Чу, Дамиан Лау, Флора Чунг, Пол Чанг, Сань Чинь, Эдди Ко-Описание: Каждые десять лет между Китаем и Японией устраивается турнир, на котором лучшие бойцы от этих стран демонстрируют своё умение владения мечом. На этот раз выбор падает на героев Дамиана Лау и Нормана Чу, однако честный и благородный японец Чу отказывается выполнять приказы своего генерала, когда тот засылает в место проведения поединка отряд ниндзя под предводительством Эдди Ко. Отряд набран с целью немного «поджулить» в схватке, выкрав в это время священные скрижали Китая, однако принципиальный Норман Чу обращает свой праведный гнев на них, добиваясь «чистой» схватки не на жизнь, а на смерть со своим оппонентом.-
КиноПоиск
IMDB
-Источник/Качество: DVDRip
Формат: AVI
Видео кодек: DivX
Аудио кодек: MP3
Видео: 720х304, 25 fps, 2 197 Kbps
Аудио: Russian, 32.0 Kbps, 2 ch, 44.1 KHz-
Код:
General
Complete name                    : D:\Фильмы\Duel To The Death (1983).avi
Format                           : AVI
Format/Info                      : Audio Video Interleave
File size                        : 2.52 GiB
Duration                         : 1h 23mn
Overall bit rate                 : 4 307 Kbps
Video
ID                               : 0
Format                           : MPEG-4 Visual
Format settings, BVOP            : Yes
Format settings, QPel            : No
Format settings, GMC             : No warppoints
Format settings, Matrix          : Default (H.263)
Muxing mode                      : Packed bitstream
Codec ID                         : DX50
Codec ID/Hint                    : DivX 5
Duration                         : 1h 23mn
Bit rate                         : 2 197 Kbps
Width                            : 720 pixels
Height                           : 304 pixels
Display aspect ratio             : 2.35:1
Frame rate                       : 25.000 fps
Color space                      : YUV
Chroma subsampling               : 4:2:0
Bit depth                        : 8 bits
Scan type                        : Progressive
Compression mode                 : Lossy
Bits/(Pixel*Frame)               : 0.402
Stream size                      : 1.28 GiB (51%)
Title                            : Video
Writing library                  : DivX 5.2.1 Alpha (UTC 2004-09-08)
Audio
ID                               : 1
Format                           : MPEG Audio
Format version                   : Version 1
Format profile                   : Layer 3
Mode                             : Joint stereo
Mode extension                   : MS Stereo
Codec ID                         : 55
Codec ID/Hint                    : MP3
Duration                         : 1h 23mn
Bit rate mode                    : Constant
Bit rate                         : 32.0 Kbps
Channel(s)                       : 2 channels
Sampling rate                    : 44.1 KHz
Compression mode                 : Lossy
Stream size                      : 78.2 MiB (3%)
Alignment                        : Aligned on interleaves
Interleave, duration             : 26 ms (0.65 video frame)
Interleave, preload duration     : 117 ms
Title                            : Audio
Writing library                  : LAME3.92
-




-
Download / Скачать

Хотите скачать бесплатно? Зарегистрируйтесь на сайте (ссылка на регистрацию). Pirat.ca - самый быстрый торрент трекер в рунете!

Как скачивать  ·   Что такое торрент  ·   Рейтинг и ограничения

Пост 12-Ноя-2011 12:42 (спустя 2 минуты)

Топик был перенесен из форума Художественные фильмы (Зарубежное кино) в форум Азиатское кино

Skinwalker
 

cony75

Лоцман

Пост 01-Апр-2012 18:54 (спустя 4 месяца 19 дней)

[Q] 

спасибо
[Профиль]  [ЛС] 

Novvy ®

Корсар

384

Пост 12-Апр-2012 23:14 (спустя 11 дней)

[Q] 

cony75, пожалуйста

_________________
Пыш-пыш
[Профиль]  [ЛС] 

ZAMOK

Корсар

Пост 09-Май-2015 18:36 (спустя 3 года)

[Q] 

!COOL!

_________________
Не бойся того,с чем не сталкивался.
[Профиль]  [ЛС] 

Дэн

Гроза морей

Пост 19-Авг-2017 20:01 (спустя 2 года 3 месяца)

[Q] 

Балгодарю за Фильм!.
[Профиль]  [ЛС] 
Показать сообщения:    
Ответить на тему

Текущее время: Сегодня 13:13

Часовой пояс: GMT + 4



Вы не можете начинать темы
Вы не можете отвечать на сообщения
Вы не можете редактировать свои сообщения
Вы не можете удалять свои сообщения
Вы не можете голосовать в опросах
Вы не можете прикреплять файлы к сообщениям
Вы не можете скачивать файлы

Майнать ▼