Честь дракона / Tom yum goong (Прачья Пинкаю / Prachya Pinkaew) [2005 г., боевик, триллер, драма, криминал, DVDRip] MVO

Ответить на тему
 
Автор
Сообщение

Пост 15-Сен-2013 22:13

[Q] 

avzaytsev

Морской Волк

-Честь дракона / Tom yum goong-- Производство: Таиланд
Год выпуска: 2005 г.
Жанр: боевик, триллер, драма, криминал
Продолжительность: 01:30:05
Мировая премьера: 11 августа 2005
Дата выхода DVD: 21 февраля 2008
Перевод: Профессиональный (многоголосый, закадровый)
Режиссер: Прачья Пинкаю / Prachya Pinkaew-В ролях: Тони Джа, Петчтай Вонгкамлао, Бонгкодж Кхонгмалай, Хин Джин, Нэйтан Джонс, Джонни Нгуйен, Латиф Кроудер, Джон Фу, Дэмиан Де Монтема, Дэвид Асаванонд-Описание: Кхам с детских лет рос с мыслью о том, что когда-нибудь он, как и его предки, сможет стать одним из воинов Джубаты, охраны королевского слона. В воспитании и становлении его, как будущего воина, принимал участие не только любящий отец, но и слон по имени Пи Яи со своим малышом Коном. Однако во время новогодней праздничной проверки, слонов коварно похищают и продают в Сидней. И тогда, ослеплённый горем потери, Кхам отправляется на его поиски, сокрушая и уничтожая всех врагов, которые становятся на его пути...-
Качество видео: DVDRip
Контейнер: AVI
Видео кодек: XviD
Аудио кодек: AC3
Видео: 720x384 (1.88:1), 23.976 fps, XviD MPEG-4 ~1922 kbps avg, 0.29 bit/pixel
Аудио: 48 kHz, AC3 Dolby Digital, 3/2 (L,C,R,l,r) + LFE ch, ~384 kbps
Cубтитры: отсутствуют
Общее
Полное имя : Том Юм Гунг.avi
Формат : AVI
Формат/Информация : Audio Video Interleave
Размер файла : 1,46 Гбайт
Продолжительность : 1 ч. 30 м.
Общий поток : 2316 Кбит/сек
Название фильма : Честь дракона / Tom yum goong / Revenge of the Warrior (2005)
Режиссёр : SENATOR (BDRip 720)
Программа кодирования : VirtualDubMod 1.5.10.2 (build 2542/release)
Правообладатель : HQ-ViDEO (www.hq-video.ru)
Примечание : 7.06.2008
Видео
Идентификатор : 0
Формат : MPEG-4 Visual
Профиль формата : Advanced Simple@L5
Параметр BVOP формата : 2
Параметр QPel формата : Нет
Параметр GMC формата : Без точки перехода
Параметр матрицы формата : Default (MPEG)
Режим смешивания : Сжатый битовый поток
Идентификатор кодека : XVID
Идентификатор кодека/Подсказка : XviD
Продолжительность : 1 ч. 30 м.
Битрейт : 1923 Кбит/сек
Ширина : 720 пикселей
Высота : 384 пикселя
Соотношение сторон : 1,85:1
Соотношение сторон в оригинале : 1,85:1
Частота кадров : 23,976 кадра/сек
Цветовое пространство : YUV
Субдискретизация насыщенности : 4:2:0
Битовая глубина : 8 бит
Тип развёртки : Прогрессивная
Метод сжатия : С потерями
Бит/(Пиксели*Кадры) : 0.290
Размер потока : 1,21 Гбайт (83%)
Библиотека кодирования : XviD 1.2.0.dev47 (UTC 2006-11-01)
Аудио
Идентификатор : 1
Формат : AC-3
Формат/Информация : Audio Coding 3
Расширение режима : CM (complete main)
Параметр Endianness формата : Big
Идентификатор кодека : 2000
Продолжительность : 1 ч. 30 м.
Вид битрейта : Постоянный
Битрейт : 384 Кбит/сек
Каналы : 6 каналов
Расположение каналов : Front: L C R, Side: L R, LFE
Частота : 48,0 КГц
Битовая глубина : 16 бит
Метод сжатия : С потерями
Размер потока : 247 Мбайт (17%)
Выравнивание : Разделение по промежуткам
Продолжительность промежутка : 42 мс. (1,00 видеокадр)
Время предзагрузки промежутка : 500 мс.
  • В аэропорту Сиднея можно увидеть двойника Джеки Чана (это не настоящий Джеки, а просто специально подобранный очень похожий на него человек).
  • Download / Скачать

    Хотите скачать бесплатно? Зарегистрируйтесь на сайте (ссылка на регистрацию). Pirat.ca - самый быстрый торрент трекер в рунете!

    Как скачивать  ·   Что такое торрент  ·   Рейтинг и ограничения

    Геннадий

    Морской Волк

    Пост 15-Сен-2013 23:56 (спустя 1 час 42 минуты)

    [Q] 

    Посмотрим, глядишь интересное кинцо
    [Профиль]  [ЛС] 

    sEo3000

    Юнга

    Пост 09-Июл-2014 17:24 (спустя 9 месяцев 23 дня)

    [Q] 

    Что, никто так и не посмотрел?
    [Профиль]  [ЛС] 

    BofRank

    Корсар

    538

    Пост 21-Июн-2015 23:03 (спустя 11 месяцев 12 дней)

    [Q] 

    спасибо) посмотрим..)
    [Профиль]  [ЛС] 

    Дэн

    Гроза морей

    Пост 19-Авг-2017 20:03 (спустя 2 года 1 месяц)

    [Q] 

    .Балгодарю за Фильм!
    [Профиль]  [ЛС] 
    Показать сообщения:    
    Ответить на тему

    Текущее время: Сегодня 10:10

    Часовой пояс: GMT + 4



    Вы не можете начинать темы
    Вы не можете отвечать на сообщения
    Вы не можете редактировать свои сообщения
    Вы не можете удалять свои сообщения
    Вы не можете голосовать в опросах
    Вы не можете прикреплять файлы к сообщениям
    Вы не можете скачивать файлы

    Майнать ▼