Китайский квартал / Chinatown (Хан Чжун Хи / Jun-hee Han) [2015 г., драма, криминал, WEB-DLRip] DVO [den904 & DeadSno]

Ответить на тему
 
Автор
Сообщение

Пост 14-Окт-2015 17:30

[Q] 

aleksey99

--Китайский квартал / Chinatown-- Производство: Южная Корея, Pollux Pictures
Год выпуска: 2015 г.
Жанр: драма, криминал
Продолжительность: 01:49:53--Мировая премьера: 29 апреля 2015--Перевод: Любительский (двухголосый, закадровый) [den904 & DeadSno]--Режиссер: Хан Чжун Хи / Jun-hee Han--В ролях: Ким Хэ Су, Гоу-юн Ким, Ко Гён Пё, Тхэ-ку Эм и др.--Описание: 1996 год. Нищий находит брошенную новорождённую девочку в камере хранения метро. Он относит её к другим бездомным, которые дают девочке имя Ирён (по названию номера ячейки). В возрасте 8 лет, малышку забирает какой-то человек и привозит к “Маме” – крёстной матери китайского квартала. Женщина берёт девочку на воспитание. Проходит время. Ирён исполняется 18 лет, она преданно служит своей “Маме”. И именно сейчас впервые сталкивается с миром, которого не видела ранее, который все называют “Нормальным”…-- --Качество видео: WEB-DLRip
Контейнер: AVI
Видео кодек: XviD
Аудио кодек: AC3
Видео: 720x304 (2.37:1), 23.976 fps, XviD build 50 ~1639 kbps avg, 0.31 bit/pixel
Аудио: 48 kHz, AC3 Dolby Digital, 2/0 (L,R) ch, ~192 kbps
Cубтитры: отсутствуют.
Общее
Полное имя : D:\Torrent2\Coin.Locker.Girl.2015.WEB-DLRip.avi
Формат : AVI
Формат/Информация : Audio Video Interleave
Размер файла : 1,41 Гбайт
Продолжительность : 1 ч. 49 м.
Общий поток : 1841 Кбит/сек
Программа кодирования : VirtualDubMod 1.5.10.3 | www.virtualdub-fr.org || (build 2550/release)
Библиотека кодирования : VirtualDubMod build 2550/release
Видео
Идентификатор : 0
Формат : MPEG-4 Visual
Профиль формата : Advanced [email protected]
Параметр BVOP формата : 1
Параметр QPel формата : Нет
Параметр GMC формата : Без точки перехода
Параметр матрицы формата : Default (H.263)
Идентификатор кодека : XVID
Идентификатор кодека/Подсказка : XviD
Продолжительность : 1 ч. 49 м.
Битрейт : 1640 Кбит/сек
Ширина : 720 пикселей
Высота : 304 пикселя
Соотношение сторон : 2,35:1
Частота кадров : 23,976 кадра/сек
Цветовое пространство : YUV
Субдискретизация насыщенности : 4:2:0
Битовая глубина : 8 бит
Тип развёртки : Прогрессивная
Метод сжатия : С потерями
Бит/(Пиксели*Кадры) : 0.312
Размер потока : 1,26 Гбайт (89%)
Библиотека кодирования : XviD 1.2.1 (UTC 2008-12-04)
Аудио
Идентификатор : 1
Формат : AC-3
Формат/Информация : Audio Coding 3
Расширение режима : CM (complete main)
Параметр Endianness формата : Big
Идентификатор кодека : 2000
Продолжительность : 1 ч. 49 м.
Вид битрейта : Постоянный
Битрейт : 192 Кбит/сек
Каналы : 2 канала
Расположение каналов : Front: L R
Частота : 48,0 КГц
Метод сжатия : С потерями
Размер потока : 151 Мбайт (10%)
Выравнивание : Разделение по промежуткам
Продолжительность промежутка : 42 мс. (1,00 видеокадр)
Время предзагрузки промежутка : 500 мс.
Трейлер
Download / Скачать

Хотите скачать бесплатно? Зарегистрируйтесь на сайте (ссылка на регистрацию). Pirat.ca - самый быстрый торрент трекер в рунете!

Как скачивать  ·   Что такое торрент  ·   Рейтинг и ограничения

zuperku

Юнга

Пост 14-Окт-2015 17:42 (спустя 12 минут)

[Q] 

не качает, нет скорости((
[Профиль]  [ЛС] 

BraionServ1

Гроза морей

Пост 15-Окт-2015 23:51 (спустя 1 день 6 часов)

[Q] 

Не скрываю что не фанат азиатских творений, но тот же Ип Ман, и не помню толи Вспоминая 1942 всяко лучше, ну правда их китайцы сняли, а ни корейцы
[Профиль]  [ЛС] 

Дэн

Гроза морей

Пост 19-Авг-2017 20:08 (спустя 1 год 10 месяцев)

[Q] 

Балгодарю за Фильм!.
[Профиль]  [ЛС] 
Показать сообщения:    
Ответить на тему

Текущее время: Сегодня 13:15

Часовой пояс: GMT + 4



Вы не можете начинать темы
Вы не можете отвечать на сообщения
Вы не можете редактировать свои сообщения
Вы не можете удалять свои сообщения
Вы не можете голосовать в опросах
Вы не можете прикреплять файлы к сообщениям
Вы не можете скачивать файлы

Майнать ▼