Клятва / The Promise / Wu ji (Кайгэ Чен / Kaige Chen) [2005 г., Фэнтези, драма, боевик, DVDRip] Dub

Ответить на тему
 
Автор
Сообщение

Пост 06-Май-2016 19:17

[Q] 

somik

-Клятва / The Promise / Wu ji-- Производство: Япония, Корея Южная, Гонг Конг, Китай, 21 Century Shengkai Film, Capgen Investment Group, China Film Group Corporation, Moonstone Entertainment, Show East
Год выпуска: 2005 г.
Жанр: Фэнтези, драма, боевик
Продолжительность: 01:37:45
Мировая премьера: 15 декабря 2005
Российская премьера: 29 июня 2006, «Пирамида»
Дата выхода DVD: 27 ноября 2008, «CP-Digital»
Перевод: Профессиональный (полное дублирование) [МОСФИЛЬМ-мастер 2006 ]
Режиссер: Кайгэ Чен / Kaige Chen-В ролях: Николас Це / Nicholas Tse, Чан Дон Гон / Dong-Kun Jang, Хироюки Санада / Hiroyuki Sanada, Сесилия Чун / Cecilia Cheung, Лю Е / Ye Liu-Описание: Эпоха древних распрей. Великие цари сражаются за сердце прекрасной принцессы и верховное господство над богатыми землями и миллионами жизней. Юный раб, наделенный даром «обгонять ветер», получает приказ спасти своего царя от гибели. Но судьба, предначертанная колдуньей, уготовила герою тяжелое испытание.
Отважный раб защитит прекрасную принцессу, но убьет своего царя. И теперь впереди у героя суровый путь воина, на котором ему суждено сразиться за свою жизнь и за свою любовь, изведав все опасности и тайны своей великой судьбы.-
Качество видео: DVDRip
Контейнер: AVI
Видео кодек: XviD
Аудио кодек: AC3
Видео: 704x304 (2.32:1), 25 fps, XviD build 45 ~1430 kbps avg, 0.27 bit/pixel
Аудио: 48 kHz, AC3 Dolby Digital, 3/2 (L,C,R,l,r) + LFE ch, ~448 kbps
Cубтитры: отсутствуют
Золотой глобус, 2006 год
Номинации (1):
Лучший фильм на иностранном языке — «Китай»
Специально сходил в кино посмотреть эту ленту. Приятные взгляду кадры, как всегда необычайно красивые сражения и «Великая Китайска Мораль»: «Не давай обещаний — всё равно нарушишь данное слово и никому не верь!»
Формат : AVI
Формат/Информация : Audio Video Interleave
Размер файла : 1,29 Гбайт
Продолжительность : 1 ч. 37 м.
Общий поток : 1888 Кбит/сек
Название фильма : The Promise.[pirat.ca]
Программа кодирования : VirtualDubMod 1.5.10.1 (build 2439/release)
Видео
Идентификатор : 0
Формат : MPEG-4 Visual
Профиль формата : Advanced [email protected]
Параметр BVOP формата : 1
Параметр QPel формата : Нет
Параметр GMC формата : Без точки перехода
Параметр матрицы формата : Выборочная
Идентификатор кодека : XVID
Идентификатор кодека/Подсказка : XviD
Продолжительность : 1 ч. 37 м.
Битрейт : 1430 Кбит/сек
Ширина : 704 пикселя
Высота : 304 пикселя
Соотношение сторон : 2,35:1
Частота кадров : 25,000 кадров/сек
Цветовое пространство : YUV
Субдискретизация насыщенности : 4:2:0
Битовая глубина : 8 бит
Тип развёртки : Прогрессивная
Метод сжатия : С потерями
Бит/(Пиксели*Кадры) : 0.267
Размер потока : 1000 Мбайт (76%)
Библиотека кодирования : XviD 1.2.0.dev45 (UTC 2006-07-10)
Аудио
Идентификатор : 1
Формат : AC-3
Формат/Информация : Audio Coding 3
Расширение режима : CM (complete main)
Параметр Endianness формата : Big
Идентификатор кодека : 2000
Продолжительность : 1 ч. 37 м.
Вид битрейта : Постоянный
Битрейт : 448 Кбит/сек
Каналы : 6 каналов
Расположение каналов : Front: L C R, Side: L R, LFE
Частота : 48,0 КГц
Частота кадров : 31,250 кадров/сек (1536 spf)
Метод сжатия : С потерями
Размер потока : 313 Мбайт (24%)
Выравнивание : Разделение по промежуткам
Продолжительность промежутка : 40 мс. (1,00 видеокадр)
Время предзагрузки промежутка : 500 мс.
Download / Скачать

Хотите скачать бесплатно? Зарегистрируйтесь на сайте (ссылка на регистрацию). Pirat.ca - самый быстрый торрент трекер в рунете!

Как скачивать  ·   Что такое торрент  ·   Рейтинг и ограничения

Дэн

Гроза морей

Пост 19-Авг-2017 20:14 (спустя 1 год 3 месяца)

[Q] 

Благодарю за Фильм!.
[Профиль]  [ЛС] 
Показать сообщения:    
Ответить на тему

Текущее время: Сегодня 17:56

Часовой пояс: GMT + 4



Вы не можете начинать темы
Вы не можете отвечать на сообщения
Вы не можете редактировать свои сообщения
Вы не можете удалять свои сообщения
Вы не можете голосовать в опросах
Вы не можете прикреплять файлы к сообщениям
Вы не можете скачивать файлы

Майнать ▼