П.И.Чайковский: Евгений Онегин / Metropolitan Opera (Фиона Шоу / Fiona Shaw) [2013 г., опера, BDRip-AVC] Original (Rus)

Ответить на тему
 
Автор
Сообщение

Пост 16-Мар-2014 02:22

[Q] 

erchine

-П.И.Чайковский: Евгений Онегин / Metropolitan Opera- Страна: Великобритания
Жанр: опера
Год выпуска: 2013 г.
Продолжительность: 01:20:31 + 01:23:01
Оригинальный аудиопоток: русский
Режиссер: Фиона Шоу / Fiona Shaw-В ролях: Анна Нетребко (Татьяна), Оксана Волкова (Ольга), Елена Заремба (Мадам Ларина), Лариса Дядькова (Филиппьевна), Петр Бечала (Ленский), Мариуш Кве́чень (Евгений Онегин), Дэвид Кроуфорд (капитан), Джон Грэм-Холл (Трике), Ричард Бернштейн (Зарецкий), Алексей Тановикски (князь Гремин), Метрополитен-опера оркестр, хор и балет-Описание: Анна Нетребко откроет в Мет третий сезон подряд, впервые исполнив на сцене Мет партию Татьяны, наивной героини пушкинского классического романа. Мариуш Квечень предстанет в роли сосредоточенного на себе заглавного героя, которым в его исполнении уже восхищалась публика многих оперных театров мира; а Петр Бечала вновь сыграет одну из своих знаменитых ролей, Ленского, друга Онегина, невольно ставшего врагом. Газета Sunday Telegraph в рецензии на постановку Деборы Уорнер, которая будет перенесена в Мет из Английской Национальной Оперы, утверждает, что спектакль «обладает взрывной эмоциональностью и властно притягивает взгляд: проникая в самое сердце оперы Чайковского, [Уорнер] показывает, что «Онегин» – о двух слоях российского общества, деревенски-провинциальном и столично-декадентском, чье столкновение приводит к трагедии, и о трех сломанных жизнях».-Сэмпл-Качество видео: BDRip-AVC
Контейнер: MKV
Видео кодек: H.264
Аудио кодек: AC3
Видео: MPEG4 Video (H264) 992x560 29.97fps ~1921 Kbps
Аудио: Dolby AC3 48000Hz 6ch 448 Kbps
x264 [info]: using SAR=1/1
x264 [info]: using cpu capabilities: MMX2 SSE2Fast SSSE3 Cache64 SlowShuffle
x264 [info]: profile High, level 4.1
x264 [info]: frame I:879 Avg QP:13.39 size: 86884
x264 [info]: frame P:29627 Avg QP:16.22 size: 24555
x264 [info]: frame B:114290 Avg QP:20.30 size: 3433
x264 [info]: consecutive B-frames: 0.8% 0.5% 7.8% 20.2% 21.7% 43.0% 6.1%
x264 [info]: mb I I16..4: 17.1% 35.9% 47.1%
x264 [info]: mb P I16..4: 2.4% 6.2% 2.7% P16..4: 43.6% 19.5% 14.6% 1.8% 0.5% skip: 8.7%
x264 [info]: mb B I16..4: 0.2% 0.4% 0.1% B16..8: 31.8% 7.0% 1.1% direct: 1.8% skip:57.5% L0:43.5% L1:38.9% BI:17.6%
x264 [info]: 8x8 transform intra:51.3% inter:42.3%
x264 [info]: direct mvs spatial:94.7% temporal:5.3%
x264 [info]: coded y,uvDC,uvAC intra: 70.9% 57.7% 30.1% inter: 12.3% 6.9% 1.1%
x264 [info]: i16 v,h,dc,p: 43% 17% 26% 14%
x264 [info]: i8 v,h,dc,ddl,ddr,vr,hd,vl,hu: 32% 14% 19% 4% 5% 8% 5% 7% 6%
x264 [info]: i4 v,h,dc,ddl,ddr,vr,hd,vl,hu: 32% 14% 20% 4% 6% 8% 5% 5% 4%
x264 [info]: i8c dc,h,v,p: 29% 29% 28% 13%
x264 [info]: Weighted P-Frames: Y:1.5% UV:0.4%
x264 [info]: ref P L0: 47.9% 10.0% 19.2% 7.4% 6.2% 4.6% 4.4% 0.3% 0.0%
x264 [info]: ref B L0: 72.9% 13.6% 7.4% 3.6% 1.8% 0.8%
x264 [info]: ref B L1: 91.3% 8.7%
x264 [info]: kb/s:1980.79
x264 [total]: encoded 144796 frames, 2.06 fps, 1980.79 kb/s
x264 [info]: using SAR=1/1
x264 [info]: using cpu capabilities: MMX2 SSE2Fast SSSE3 Cache64 SlowShuffle
x264 [info]: profile High, level 4.1
x264 [info]: frame I:910 Avg QP:12.71 size: 68406
x264 [info]: frame P:30352 Avg QP:15.63 size: 21055
x264 [info]: frame B:118036 Avg QP:18.83 size: 4127
x264 [info]: consecutive B-frames: 0.9% 1.8% 5.2% 18.2% 21.1% 47.0% 5.7%
x264 [info]: mb I I16..4: 22.5% 27.6% 49.9%
x264 [info]: mb P I16..4: 3.9% 6.9% 3.9% P16..4: 44.1% 18.3% 12.6% 1.5% 0.4% skip: 8.5%
x264 [info]: mb B I16..4: 0.5% 0.6% 0.2% B16..8: 35.7% 9.4% 1.5% direct: 1.9% skip:50.1% L0:47.1% L1:40.1% BI:12.8%
x264 [info]: 8x8 transform intra:44.6% inter:36.0%
x264 [info]: direct mvs spatial:92.2% temporal:7.8%
x264 [info]: coded y,uvDC,uvAC intra: 59.0% 52.8% 27.1% inter: 11.4% 7.6% 1.1%
x264 [info]: i16 v,h,dc,p: 37% 19% 28% 16%
x264 [info]: i8 v,h,dc,ddl,ddr,vr,hd,vl,hu: 27% 13% 25% 4% 5% 8% 5% 7% 6%
x264 [info]: i4 v,h,dc,ddl,ddr,vr,hd,vl,hu: 28% 12% 30% 4% 6% 7% 4% 5% 4%
x264 [info]: i8c dc,h,v,p: 32% 31% 25% 12%
x264 [info]: Weighted P-Frames: Y:0.8% UV:0.3%
x264 [info]: ref P L0: 46.2% 7.3% 20.8% 8.3% 7.0% 5.3% 4.9% 0.2% 0.0%
x264 [info]: ref B L0: 68.3% 15.1% 8.9% 4.5% 2.4% 0.9%
x264 [info]: ref B L1: 90.6% 9.4%
x264 [info]: kb/s:1908.61
x264 [total]: encoded 149298 frames, 1.95 fps, 1908.61 kb/s
General
Unique ID : 211166612550235883153406438601254190000 (0x9EDD35D20FB3FAB4BC9B10494A673BB0)
Complete name : G:\Evgenij.Onegin.2013.H.264.BDRip-AVC.JRG\Akt.1.mkv
Format : Matroska
Format version : Version 4 / Version 2
File size : 1.37 GiB
Duration : 1h 20mn
Overall bit rate : 2 431 Kbps
Movie name : The Jolly Roger Release Group by http://Pirat.CA
Encoded date : UTC 2014-03-14 17:39:02
Writing application : mkvmerge v6.6.0 ('The Edge Of The In Between') built on Dec 1 2013 17:55:00
Writing library : libebml v1.3.0 + libmatroska v1.4.1
Video
ID : 1
Format : AVC
Format/Info : Advanced Video Codec
Format profile : [email protected]
Format settings, CABAC : Yes
Format settings, ReFrames : 7 frames
Codec ID : V_MPEG4/ISO/AVC
Duration : 1h 20mn
Bit rate : 1 981 Kbps
Width : 992 pixels
Height : 560 pixels
Display aspect ratio : 16:9
Frame rate mode : Constant
Frame rate : 29.970 fps
Color space : YUV
Chroma subsampling : 4:2:0
Bit depth : 8 bits
Scan type : Progressive
Bits/(Pixel*Frame) : 0.119
Stream size : 1.09 GiB (80%)
Writing library : x264 core 130 r2273 b3065e6
Encoding settings : cabac=1 / ref=7 / deblock=1:0:0 / analyse=0x3:0x133 / me=umh / subme=10 / psy=0 / mixed_ref=1 / me_range=24 / chroma_me=1 / trellis=2 / 8x8dct=1 / cqm=0 / deadzone=21,11 / fast_pskip=0 / chroma_qp_offset=0 / threads=3 / lookahead_threads=1 / sliced_threads=0 / nr=0 / decimate=1 / interlaced=0 / bluray_compat=0 / constrained_intra=0 / bframes=6 / b_pyramid=2 / b_adapt=2 / b_bias=0 / direct=3 / weightb=1 / open_gop=0 / weightp=2 / keyint=250 / keyint_min=25 / scenecut=40 / intra_refresh=0 / rc_lookahead=50 / rc=2pass / mbtree=1 / bitrate=1981 / ratetol=1.0 / qcomp=0.60 / qpmin=0 / qpmax=69 / qpstep=4 / cplxblur=20.0 / qblur=0.5 / ip_ratio=1.40 / aq=1:1.00
Default : Yes
Forced : No
Audio
ID : 2
Format : AC-3
Format/Info : Audio Coding 3
Mode extension : CM (complete main)
Format settings, Endianness : Big
Codec ID : A_AC3
Duration : 1h 20mn
Bit rate mode : Constant
Bit rate : 448 Kbps
Channel(s) : 6 channels
Channel positions : Front: L C R, Side: L R, LFE
Sampling rate : 48.0 KHz
Bit depth : 16 bits
Compression mode : Lossy
Stream size : 258 MiB (18%)
Language : Russian
Default : Yes
Forced : No
Общее
Уникальный идентификатор : 203114595797865006215710847069442067683 (0x98CE72BE79AA98C6AB09434B8D74CCE3)
Полное имя : G:\Evgenij.Onegin.2013.H.264.BDRip-AVC.JRG\Akt.2.mkv
Формат : Matroska
Версия формата : Version 4 / Version 2
Размер файла : 1,37 Гбайт
Продолжительность : 1 ч. 23 м.
Общий поток : 2359 Кбит/сек
Название фильма : The Jolly Roger Release Group by http://Pirat.CA
Дата кодирования : UTC 2014-03-15 20:47:13
Программа кодирования : mkvmerge v6.6.0 ('The Edge Of The In Between') built on Dec 1 2013 17:55:00
Библиотека кодирования : libebml v1.3.0 + libmatroska v1.4.1
Видео
Идентификатор : 1
Формат : AVC
Формат/Информация : Advanced Video Codec
Профиль формата : [email protected]
Параметр CABAC формата : Да
Параметр ReFrames формата : 7 кадров
Идентификатор кодека : V_MPEG4/ISO/AVC
Продолжительность : 1 ч. 23 м.
Битрейт : 1908 Кбит/сек
Ширина : 992 пикселя
Высота : 560 пикселей
Соотношение сторон : 16:9
Режим частоты кадров : Постоянный
Частота кадров : 29,970 кадров/сек
Цветовое пространство : YUV
Субдискретизация насыщенности : 4:2:0
Битовая глубина : 8 бит
Тип развёртки : Прогрессивная
Бит/(Пиксели*Кадры) : 0.115
Размер потока : 1,08 Гбайт (79%)
Библиотека кодирования : x264 core 130 r2273 b3065e6
Настройки программы : cabac=1 / ref=7 / deblock=1:0:0 / analyse=0x3:0x133 / me=umh / subme=10 / psy=0 / mixed_ref=1 / me_range=24 / chroma_me=1 / trellis=2 / 8x8dct=1 / cqm=0 / deadzone=21,11 / fast_pskip=0 / chroma_qp_offset=0 / threads=3 / lookahead_threads=1 / sliced_threads=0 / nr=0 / decimate=1 / interlaced=0 / bluray_compat=0 / constrained_intra=0 / bframes=6 / b_pyramid=2 / b_adapt=2 / b_bias=0 / direct=3 / weightb=1 / open_gop=0 / weightp=2 / keyint=250 / keyint_min=25 / scenecut=40 / intra_refresh=0 / rc_lookahead=50 / rc=2pass / mbtree=1 / bitrate=1908 / ratetol=1.0 / qcomp=0.60 / qpmin=0 / qpmax=69 / qpstep=4 / cplxblur=20.0 / qblur=0.5 / ip_ratio=1.40 / aq=1:1.00
Default : Да
Forced : Нет
Аудио
Идентификатор : 2
Формат : AC-3
Формат/Информация : Audio Coding 3
Расширение режима : CM (complete main)
Параметр Endianness формата : Big
Идентификатор кодека : A_AC3
Продолжительность : 1 ч. 23 м.
Вид битрейта : Постоянный
Битрейт : 448 Кбит/сек
Каналы : 6 каналов
Расположение каналов : Front: L C R, Side: L R, LFE
Частота : 48,0 КГц
Битовая глубина : 16 бит
Метод сжатия : С потерями
Размер потока : 266 Мбайт (19%)
Язык : Russian
Default : Да
Forced : Нет

Download / Скачать

Хотите скачать бесплатно? Зарегистрируйтесь на сайте (ссылка на регистрацию). Pirat.ca - самый быстрый торрент трекер в рунете!

Как скачивать  ·   Что такое торрент  ·   Рейтинг и ограничения

Степанчо

Шкипер

Пост 27-Авг-2017 15:11 (спустя 3 года 5 месяцев)

[Q] 

Раздавать будем или как?
Что то с раздачей не густо...
[Профиль]  [ЛС] 
Показать сообщения:    
Ответить на тему

Текущее время: Сегодня 14:10

Часовой пояс: GMT + 4



Вы не можете начинать темы
Вы не можете отвечать на сообщения
Вы не можете редактировать свои сообщения
Вы не можете удалять свои сообщения
Вы не можете голосовать в опросах
Вы не можете прикреплять файлы к сообщениям
Вы не можете скачивать файлы

Майнать ▼