Битва преподов (Махач) / Fist Fight (Ричи Кин / Richie Keen) [2017 г., комедия, BDRip-AVC] VO М.Яроцкий + Sub (Rus.Eng) + Original (Eng)

Ответить на тему
 
Автор
Сообщение

Пост 25-Авг-2017 15:11

[Q] 

Evgesha 76

Корсар

-Битва преподов (Махач) / Fist Fight-- Производство: США. 21 Laps Entertainment, New Line Cinema
Год выпуска: 2017 г.
Жанр: комедия
Продолжительность: 01:31:01
Мировая премьера: 16 февраля 2017
Перевод: Любительский (одноголосый, закадровый)-Михаил Яроцкий (kyberpunk)
Оригинальный аудиопоток: английский
Режиссёр: Ричи Кин / Richie Keen-В ролях: Чарли Дэй, Айс Кьюб, Трэйси Морган, Джиллиан Белл, Дин Норрис, Кристина Хендрикс, Кумэйл Нанджиани, Дэннис Хэйсбёрт, ДжоАнна Гарсиа Суишер.-Описание: Когда один школьный учитель добивается увольнения другого, последний вызывает его выяснить отношения после занятий с помощью кулаков.-

Качество видео: BDRip-AVC
Контейнер: MKV
Видео кодек: MPEG4 AVC
Аудио кодек: AC3
Видео: MPEG-4 AVC, 2700 Кбит/с, 1024x576,23,976fps,(0.191)bit/pix
Аудио #1: AC-3, 48.0 KHz, 6 ch, 448 Kbps-М.Яроцкий
Аудио #2: AC-3, 48.0 KHz, 6 ch, 448 Kbps-Оригинал
Cубтитры: русские,английские
Формат субтитров: UTF-8
Общее
Уникальный идентификатор : 227945096696299510842607009788244167185 (0xAB7CA0F520E82782B85BF55990228A11)
Полное имя :Fist Fight.2017.BDRip-AVC.AVO.Kyberpunk.mkv
Формат : Matroska
Версия формата : Version 4 / Version 2
Размер файла : 2,29 Гбайт
Продолжительность : 1 ч. 31 м.
Общий поток : 3598 Кбит/сек
Дата кодирования : UTC 2017-08-15 16:28:38
Программа кодирования : mkvmerge v8.3.0 ('Over the Horizon') 64bit
Библиотека кодирования : libebml v1.3.1 + libmatroska v1.4.2
Видео
Идентификатор : 1
Формат : AVC
Формат/Информация : Advanced Video Codec
Профиль формата : High@L4.1
Параметр CABAC формата : Да
Параметр RefFrames формата : 12 кадров
Идентификатор кодека : V_MPEG4/ISO/AVC
Продолжительность : 1 ч. 31 м.
Битрейт : 2700 Кбит/сек
Ширина : 1024 пикселя
Высота : 576 пикселей
Соотношение сторон : 16:9
Режим частоты кадров : Постоянный
Частота кадров : 23,976 (24000/1001) кадра/сек
Цветовое пространство : YUV
Субдискретизация насыщенности : 4:2:0
Битовая глубина : 8 бит
Тип развёртки : Прогрессивная
Бит/(Пиксели*Кадры) : 0.191
Размер потока : 1,72 Гбайт (75%)
Библиотека кодирования : x264 core 148 r2638 7599210
Настройки программы : cabac=1 / ref=12 / deblock=1:-2:-1 / analyse=0x3:0x113 / me=umh / subme=11 / psy=1 / psy_rd=0.00:0.15 / mixed_ref=1 / me_range=32 / chroma_me=1 / trellis=2 / 8x8dct=1 / cqm=0 / deadzone=21,11 / fast_pskip=0 / chroma_qp_offset=-3 / threads=6 / lookahead_threads=1 / sliced_threads=0 / nr=0 / decimate=0 / interlaced=0 / bluray_compat=0 / constrained_intra=0 / bframes=12 / b_pyramid=2 / b_adapt=2 / b_bias=0 / direct=1 / weightb=0 / open_gop=0 / weightp=2 / keyint=240 / keyint_min=23 / scenecut=40 / intra_refresh=0 / rc_lookahead=40 / rc=2pass / mbtree=1 / bitrate=2700 / ratetol=1.0 / qcomp=0.70 / qpmin=0 / qpmax=69 / qpstep=4 / cplxblur=20.0 / qblur=0.5 / vbv_maxrate=50000 / vbv_bufsize=65500 / nal_hrd=none / filler=0 / ip_ratio=1.40 / aq=1:1.00
Язык : English
Default : Да
Forced : Нет
Аудио #1
Идентификатор : 2
Формат : AC-3
Формат/Информация : Audio Coding 3
Параметр Endianness формата : Big
Идентификатор кодека : A_AC3
Продолжительность : 1 ч. 31 м.
Вид битрейта : Постоянный
Битрейт : 448 Кбит/сек
Каналы : 6 каналов
Расположение каналов : Front: L C R, Side: L R, LFE
Частота : 48,0 КГц
Частота кадров : 31,250 кадров/сек (1536 SPF)
Битовая глубина : 16 бит
Метод сжатия : С потерями
Размер потока : 292 Мбайт (12%)
Заголовок : AVO М.Яроцкий
Язык : Russian
ServiceKind/String : Complete Main
Default : Да
Forced : Нет
Аудио #2
Идентификатор : 3
Формат : AC-3
Формат/Информация : Audio Coding 3
Параметр Endianness формата : Big
Идентификатор кодека : A_AC3
Продолжительность : 1 ч. 31 м.
Вид битрейта : Постоянный
Битрейт : 448 Кбит/сек
Каналы : 6 каналов
Расположение каналов : Front: L C R, Side: L R, LFE
Частота : 48,0 КГц
Частота кадров : 31,250 кадров/сек (1536 SPF)
Битовая глубина : 16 бит
Метод сжатия : С потерями
Размер потока : 292 Мбайт (12%)
Язык : English
ServiceKind/String : Complete Main
Default : Нет
Forced : Нет
Текст #1
Идентификатор : 4
Формат : UTF-8
Идентификатор кодека : S_TEXT/UTF8
Идентификатор кодека/Информация : UTF-8 Plain Text
Продолжительность : 1 ч. 30 м.
Битрейт : 154 бит/сек
ElementCount : 1876
Размер потока : 102 Кбайт (0%)
Язык : Russian
Default : Нет
Forced : Нет
Текст #2
Идентификатор : 5
Формат : UTF-8
Идентификатор кодека : S_TEXT/UTF8
Идентификатор кодека/Информация : UTF-8 Plain Text
Продолжительность : 1 ч. 30 м.
Битрейт : 94 бит/сек
ElementCount : 1876
Размер потока : 62,2 Кбайт (0%)
Язык : English
Default : Нет
Forced : Нет
Меню
00:00:00.000 : en:00:00:00.000
00:09:54.010 : en:00:09:54.010
00:20:36.527 : en:00:20:36.527
00:29:52.290 : en:00:29:52.290
00:44:00.471 : en:00:44:00.471
00:50:11.217 : en:00:50:11.217
01:02:44.844 : en:01:02:44.844
01:10:16.754 : en:01:10:16.754
01:19:36.021 : en:01:19:36.021
01:24:07.125 : en:01:24:07.125
Download / Скачать

Хотите скачать бесплатно? Зарегистрируйтесь на сайте (ссылка на регистрацию). Pirat.ca - самый быстрый торрент трекер в рунете!

Как скачивать  ·   Что такое торрент  ·   Рейтинг и ограничения

Кристина119

Гроза морей

Пост 25-Авг-2017 16:20 (спустя 1 час 8 минут)

[Q] 

Что-то новенькое Лови бочку
[Профиль]  [ЛС] 

bnm

Морской Волк

Пост 25-Авг-2017 18:49 (спустя 2 часа 29 минут)

[Q] 

Лови бочку
[Профиль]  [ЛС] 

micro_killer

Штурман

Пост 27-Авг-2017 16:07 (спустя 1 день 21 час)

[Q] 

Хороший фильмец, поржал.......
[Профиль]  [ЛС] 

baltimor30

Корсар

Пост 01-Сен-2017 23:39 (спустя 5 дней)

[Q] 

ну если ржать с этого фильма, так это в самом конце улыбнутся, а так америкосовские шутки, но вечерок советую убить
[Профиль]  [ЛС] 

damhsn

Шкипер

Пост 05-Сен-2017 19:39 (спустя 3 дня)

[Q] 

Озвучка - мат-перемат (хоть и одноголоска - но нормально озвучена), скорее на мате весь фильм и построен, там даже дети матерятся. с дубляжем - наверное скучноватым получился бы. 5/10 имхо.
[Профиль]  [ЛС] 

ShadowAW

Штурман

Пост 11-Сен-2017 12:10 (спустя 5 дней)

[Q] 

Улыбнул фильмец.)
[Профиль]  [ЛС] 

Пост 05-Ноя-2017 00:32 (спустя 1 месяц 23 дня)

Топик был перенесен из форума Новинки (HD|DVD|BD| TV|SAT|PDTV| - Rips) в форум Фильмы 2010 - 2017 г.г.
ara1205
 

bnm

Морской Волк

Пост 12-Янв-2018 14:45 (спустя 4 месяца 1 день)

[Q] 

На любителя
[Профиль]  [ЛС] 
Показать сообщения:    
Ответить на тему

Текущее время: Сегодня 18:47

Часовой пояс: GMT + 4



Вы не можете начинать темы
Вы не можете отвечать на сообщения
Вы не можете редактировать свои сообщения
Вы не можете удалять свои сообщения
Вы не можете голосовать в опросах
Вы не можете прикреплять файлы к сообщениям
Вы не можете скачивать файлы

Майнать ▼