(Hard & Heavy) Игорь Куприянов - Дискография (7CD) - 1991-2011 [FLAC, image +.cue, lossless]

Ответить на тему
 
Автор
Сообщение

Пост 30-Авг-2017 19:47

[Q] 

sergej644

-Игорь Куприянов - Дискография (7CD)--
Год издания: 1991 - 2011
Страна: Russia
Жанр: Hard & Heavy
Продолжительность: 06:05:45-Лейбл издания: A One, Квадро, CD MAXIMUM
Страна-выпуска диска: Russia -Формат: FLAC
Битрейт аудио: Lossless
Тип рипа: image +.cue
Наличие сканов в содержимом раздачи: да*

* кроме альбома 1995 года-

01. Фея летних снов (4:03)
02. Мы не встретимся (4:43)
03. Семь дней (3:55)
04. Последний взгляд (3:58)
05. Ночная гостья (4:42)
06. Мой путь (Я ищу) (4:31)
07. Любовь как яд (4:15)
08. Прощай (5:00)
09. Королева ночных аллей (4:20)
10. Попытка к бегству (3:36)
11. Не своди меня с ума (bonus) (3:58)
12. Поздно (bonus) (6:00)
13. Сто одиноких лет (bonus) (3:57)
14. Зимнее сердце (bonus) (4:55)
15. Я выбрал тебя (bonus) (4:10)
16. Новый год (bonus) (4:07)
17. Всё изменится (bonus) (4:31)
18. Всё сначала (bonus) (3:10)
Код:
Exact Audio Copy V1.0 beta 3 from 29. August 2011
Отчёт EAC об извлечении, выполненном 24. октября 2011, 13:35
Игорь Куприянов / Попытка К Бегству
Дисковод: Optiarc DVD RW AD-5200A   Adapter: 1  ID: 0
Режим чтения                 : Достоверность
Использование точного потока : Да
Отключение кэша аудио        : Да
Использование указателей C2  : Нет
Коррекция смещения при чтении                     : 48
Способность читать области Lead-in и Lead-out     : Нет
Заполнение пропущенных сэмплов тишиной            : Да
Удаление блоков с тишиной в начале и конце        : Нет
При вычислениях CRC использовались нулевые сэмплы : Да
Интерфейс                                         : Установленный внешний ASPI-интерфейс
Выходной формат          : Пользовательский кодировщик
Выбранный битрейт        : 1024 kBit/s
Качество                 : Высокий
Добавление ID3-тега      : Нет
Утилита сжатия           : C:\Program Files\Exact Audio Copy\Flac\flac.exe
Дополнительные параметры : -V -8 -T "Date=%year%" -T "Genre=%genre%" %source%
TOC извлечённого CD
     Трек |   Старт  | Длительность | Начальный сектор | Конечный сектор
    ---------------------------------------------------------------------
       1  |  0:00.00 |    4:03.23   |           0      |      18247
       2  |  4:03.23 |    4:42.51   |       18248      |      39448
       3  |  8:45.74 |    3:54.59   |       39449      |      57057
       4  | 12:40.58 |    3:58.02   |       57058      |      74909
       5  | 16:38.60 |    4:42.16   |       74910      |      96075
       6  | 21:21.01 |    4:30.58   |       96076      |     116383
       7  | 25:51.59 |    4:14.72   |      116384      |     135505
       8  | 30:06.56 |    4:59.45   |      135506      |     157975
       9  | 35:06.26 |    4:19.63   |      157976      |     177463
      10  | 39:26.14 |    3:35.71   |      177464      |     193659
      11  | 43:02.10 |    3:57.45   |      193660      |     211479
      12  | 46:59.55 |    5:59.43   |      211480      |     238447
      13  | 52:59.23 |    3:56.66   |      238448      |     256213
      14  | 56:56.14 |    4:54.70   |      256214      |     278333
      15  | 61:51.09 |    4:10.34   |      278334      |     297117
      16  | 66:01.43 |    4:06.48   |      297118      |     315615
      17  | 70:08.16 |    4:30.61   |      315616      |     335926
      18  | 74:39.02 |    3:10.26   |      335927      |     350202
Характеристики диапазона извлечения и сообщения об ошибках
Выбранный диапазон
     Имя файла E:\Закачки\Игорь Куприянов - Попытка К Бегству\Игорь Куприянов - Попытка К Бегству.wav
     Пиковый уровень 99.4 %
     Скорость извлечения 4.3 X
     Качество диапазона 100.0 %
     CRC теста C3DD047F
     CRC копии C3DD047F
     Копирование... OK
Ошибок не произошло
AccurateRip: сводка
Трек  1  отсутствует в базе данных
Трек  2  отсутствует в базе данных
Трек  3  отсутствует в базе данных
Трек  4  отсутствует в базе данных
Трек  5  отсутствует в базе данных
Трек  6  отсутствует в базе данных
Трек  7  отсутствует в базе данных
Трек  8  отсутствует в базе данных
Трек  9  отсутствует в базе данных
Трек 10  отсутствует в базе данных
Трек 11  отсутствует в базе данных
Трек 12  отсутствует в базе данных
Трек 13  отсутствует в базе данных
Трек 14  отсутствует в базе данных
Трек 15  отсутствует в базе данных
Трек 16  отсутствует в базе данных
Трек 17  отсутствует в базе данных
Трек 18  отсутствует в базе данных
Ни одного трека нет в базе AccurateRip
Конец отчёта
Код:
REM GENRE "Hard Rock"
REM DATE 2011
REM DISCID EE123D12
REM COMMENT "ExactAudioCopy v1.0b3"
PERFORMER "Игорь Куприянов"
TITLE "Попытка К Бегству"
FILE "Игорь Куприянов - Попытка К Бегству.flac" WAVE
  TRACK 01 AUDIO
    TITLE "Фея летних снов"
    PERFORMER "Игорь Куприянов"
    INDEX 01 00:00:00
  TRACK 02 AUDIO
    TITLE "Мы не встретимся"
    PERFORMER "Игорь Куприянов"
    INDEX 00 04:01:23
    INDEX 01 04:03:23
  TRACK 03 AUDIO
    TITLE "Семь дней"
    PERFORMER "Игорь Куприянов"
    INDEX 00 08:43:74
    INDEX 01 08:45:74
  TRACK 04 AUDIO
    TITLE "Последний взгляд"
    PERFORMER "Игорь Куприянов"
    INDEX 00 12:38:58
    INDEX 01 12:40:58
  TRACK 05 AUDIO
    TITLE "Ночная гостья"
    PERFORMER "Игорь Куприянов"
    INDEX 00 16:36:60
    INDEX 01 16:38:60
  TRACK 06 AUDIO
    TITLE "Мой путь (Я ищу)"
    PERFORMER "Игорь Куприянов"
    INDEX 00 21:19:01
    INDEX 01 21:21:01
  TRACK 07 AUDIO
    TITLE "Любовь как яд"
    PERFORMER "Игорь Куприянов"
    INDEX 00 25:49:59
    INDEX 01 25:51:59
  TRACK 08 AUDIO
    TITLE "Прощай"
    PERFORMER "Игорь Куприянов"
    INDEX 00 30:04:56
    INDEX 01 30:06:56
  TRACK 09 AUDIO
    TITLE "Королева ночных аллей"
    PERFORMER "Игорь Куприянов"
    INDEX 00 35:04:26
    INDEX 01 35:06:26
  TRACK 10 AUDIO
    TITLE "Попытка к бегству"
    PERFORMER "Игорь Куприянов"
    INDEX 00 39:24:14
    INDEX 01 39:26:14
  TRACK 11 AUDIO
    TITLE "Не своди меня с ума (bonus)"
    PERFORMER "Игорь Куприянов"
    INDEX 00 43:00:10
    INDEX 01 43:02:10
  TRACK 12 AUDIO
    TITLE "Поздно (bonus)"
    PERFORMER "Игорь Куприянов"
    INDEX 00 46:57:55
    INDEX 01 46:59:55
  TRACK 13 AUDIO
    TITLE "Сто одиноких лет (bonus)"
    PERFORMER "Игорь Куприянов"
    INDEX 00 52:57:23
    INDEX 01 52:59:23
  TRACK 14 AUDIO
    TITLE "Зимнее сердце (bonus)"
    PERFORMER "Игорь Куприянов"
    INDEX 00 56:54:36
    INDEX 01 56:56:14
  TRACK 15 AUDIO
    TITLE "Я выбрал тебя (bonus)"
    PERFORMER "Игорь Куприянов"
    INDEX 00 61:49:09
    INDEX 01 61:51:09
  TRACK 16 AUDIO
    TITLE "Новый год (bonus)"
    PERFORMER "Игорь Куприянов"
    INDEX 00 65:59:43
    INDEX 01 66:01:43
  TRACK 17 AUDIO
    TITLE "Всё изменится (bonus)"
    PERFORMER "Игорь Куприянов"
    INDEX 00 70:06:17
    INDEX 01 70:08:16
  TRACK 18 AUDIO
    TITLE "Всё сначала (bonus)"
    PERFORMER "Игорь Куприянов"
    INDEX 00 74:37:02
    INDEX 01 74:39:02

01. Белый ветер (5:02)
02. Уходишь и уходи (4:41)
03. Ты сгоришь (4:36)
04. Вернись (3:35)
05. Сто одиноких лет (3:59)
06. Не своди меня с ума (3:58)
07. Поздно (6:01)
08. Зимнее сердце (4:56)
09. Мой сон (4:33)
10. Горе не беда (3:35)
Код:
Отчёт EAC об извлечении, выполненном 30. августа 2007, 9:32 для диска:
Игорь Куприянов / Белый Ветер
Дисковод: TOSHIBA ODD-DVD SD-M1802   Adapter: 1  ID: 0
Режим чтения: Достоверный (C2: нет, Точный поток: да, Отключение кэша: да)
Коррекция смещения при чтении: 691
Способность читать области Lead-in и Lead-out : Нет
Выходной формат: Внутренние WAV-операции
                     44.100 Гц; 16 бит; стерео
Другие параметры:
    Заполнение пропущенных сэмплов тишиной : Да
    Удаление блоков с тишиной в начале и конце : Нет
    Установленный внешний ASPI-интерфейс
Характеристики диапазона извлечения и сообщения об ошибках
Выбранный диапазон
     Имя файла D:\eMule\Seed\Lossless\Игорь Куприянов\Белый Ветер\Игорь Куприянов - Белый Ветер.wav
     Пиковый уровень 99.9 %
     Качество диапазона 100.0 %
     CRC 7ECCC0FD
     Копирование... OK
Ошибок не произошло
Конец отчёта
Код:
REM GENRE Hard Rock
REM DATE 1995
REM DISCID 7C0A890A
REM COMMENT "ExactAudioCopy v0.95b4"
PERFORMER "Игорь Куприянов"
TITLE "Белый Ветер"
FILE "Игорь Куприянов - Белый Ветер.flac" WAVE
  TRACK 01 AUDIO
    TITLE "Белый ветер"
    PERFORMER "Игорь Куприянов"
    INDEX 00 00:00:00
    INDEX 01 00:00:32
  TRACK 02 AUDIO
    TITLE "Уходишь и уходи"
    PERFORMER "Игорь Куприянов"
    INDEX 01 05:02:45
  TRACK 03 AUDIO
    TITLE "Ты сгоришь"
    PERFORMER "Игорь Куприянов"
    INDEX 01 09:44:02
  TRACK 04 AUDIO
    TITLE "Вернись"
    PERFORMER "Игорь Куприянов"
    INDEX 01 14:19:70
  TRACK 05 AUDIO
    TITLE "Сто одиноких лет"
    PERFORMER "Игорь Куприянов"
    INDEX 01 17:55:32
  TRACK 06 AUDIO
    TITLE "Не своди меня с ума"
    PERFORMER "Игорь Куприянов"
    INDEX 01 21:54:42
  TRACK 07 AUDIO
    TITLE "Поздно"
    PERFORMER "Игорь Куприянов"
    INDEX 01 25:52:57
  TRACK 08 AUDIO
    TITLE "Зимнее сердце"
    PERFORMER "Игорь Куприянов"
    INDEX 01 31:53:27
  TRACK 09 AUDIO
    TITLE "Мой сон"
    PERFORMER "Игорь Куприянов"
    INDEX 01 36:49:20
  TRACK 10 AUDIO
    TITLE "Горе не беда"
    PERFORMER "Игорь Куприянов"
    INDEX 01 41:22:52

01. Семь дней (4:15)
02. Туфли на большом каблуке (3:01)
03. Игра с судьбой (4:54)
04. Луна (3:39)
05. Танцы на краю (4:39)
06. Одинокий ангел (посвящается Сергею Кудишину) (4:28)
07. 23 подружки (4:57)
08. Молитва (4:43)
09. Зов (4:55)
10. Огненная лестница (4:21)
11. Мой путь (5:22)
12. Coda (3:56)
Код:
EAC extraction logfile from 8. December 2008, 0:23 for CD
Игорь Куприянов / Семь дней
Used drive  : PIONEER DVD-RW  DVR-111D   Adapter: 1  ID: 0
Read mode   : Secure with NO C2, accurate stream, disable cache
Read offset correction : 48
Overread into Lead-In and Lead-Out : No
Used output format : Internal WAV Routines
                     44.100 Hz; 16 Bit; Stereo
Other options      :
    Fill up missing offset samples with silence : Yes
    Delete leading and trailing silent blocks : No
    Installed external ASPI interface
Range status and errors
Selected range
     Filename L:\Игорь Куприянов\2003-Семь дней\Игорь Куприянов - Семь дней.wav
     Peak level 96.5 %
     Range quality 99.9 %
     CRC 4C92CA97
     Copy OK
No errors occured
End of status report
Код:
REM GENRE "Hard Rock"
REM DATE 2003
REM DISCID B00C750C
REM COMMENT "ExactAudioCopy v0.95b4"
PERFORMER "Игорь Куприянов"
TITLE "Семь Дней"
FILE "Игорь Куприянов - Семь Дней.flac" WAVE
  TRACK 01 AUDIO
    TITLE "Семь дней"
    PERFORMER "Игорь Куприянов"
    INDEX 01 00:00:00
  TRACK 02 AUDIO
    TITLE "Туфли на большом каблуке"
    PERFORMER "Игорь Куприянов"
    INDEX 00 04:12:39
    INDEX 01 04:14:39
  TRACK 03 AUDIO
    TITLE "Игра с судьбой"
    PERFORMER "Игорь Куприянов"
    INDEX 00 07:13:44
    INDEX 01 07:15:44
  TRACK 04 AUDIO
    TITLE "Луна"
    PERFORMER "Игорь Куприянов"
    INDEX 00 12:07:51
    INDEX 01 12:09:51
  TRACK 05 AUDIO
    TITLE "Танцы на краю"
    PERFORMER "Игорь Куприянов"
    INDEX 00 15:46:41
    INDEX 01 15:48:41
  TRACK 06 AUDIO
    TITLE "Одинокий ангел (посвящается Сергею Кудишину)"
    PERFORMER "Игорь Куприянов"
    INDEX 00 20:25:13
    INDEX 01 20:27:13
  TRACK 07 AUDIO
    TITLE "23 подружки"
    PERFORMER "Игорь Куприянов"
    INDEX 00 24:53:45
    INDEX 01 24:55:45
  TRACK 08 AUDIO
    TITLE "Молитва"
    PERFORMER "Игорь Куприянов"
    INDEX 00 29:50:65
    INDEX 01 29:52:65
  TRACK 09 AUDIO
    TITLE "Зов"
    PERFORMER "Игорь Куприянов"
    INDEX 00 34:34:03
    INDEX 01 34:36:03
  TRACK 10 AUDIO
    TITLE "Огненная лестница"
    PERFORMER "Игорь Куприянов"
    INDEX 00 39:28:65
    INDEX 01 39:30:65
  TRACK 11 AUDIO
    TITLE "Мой путь"
    PERFORMER "Игорь Куприянов"
    INDEX 00 43:49:69
    INDEX 01 43:51:69
  TRACK 12 AUDIO
    TITLE "Coda"
    PERFORMER "Игорь Куприянов"
    INDEX 00 49:11:70
    INDEX 01 49:13:70

01. Адреналин (3:59)
02. Радиоволна (3:28)
03. Чёрное солнце (4:07)
04. Зеленый свет (3:01)
05. Снежность (3:30)
06. Городской жесткач (3:42)
07. Сирена (4:23)
08. Мама (3:31)
09. Небо здесь (3:13)
10. Зима (3:37)
11. Эта жизнь (3:37)
12. Мы вместе (3:52)
13. Последний поезд (бонус) (4:13)
Код:
Exact Audio Copy V1.0 beta 3 from 29. August 2011
Отчёт EAC об извлечении, выполненном 30. января 2013, 20:01
Куприянов / Адреналин
Дисковод: HL-DT-STDVDRAM GH70N   Adapter: 0  ID: 4
Режим чтения                 : Достоверность
Использование точного потока : Да
Отключение кэша аудио        : Да
Использование указателей C2  : Нет
Коррекция смещения при чтении                     : 667
Способность читать области Lead-in и Lead-out     : Нет
Заполнение пропущенных сэмплов тишиной            : Да
Удаление блоков с тишиной в начале и конце        : Нет
При вычислениях CRC использовались нулевые сэмплы : Да
Интерфейс                                         : Встроенный Win32-интерфейс для Win NT/2000
Выходной формат          : Пользовательский кодировщик
Выбранный битрейт        : 1024 kBit/s
Качество                 : Высокий
Добавление ID3-тега      : Нет
Утилита сжатия           : C:\Program Files (x86)\Exact Audio Copy\Flac\flac.exe
Дополнительные параметры : -V -8 %source%
TOC извлечённого CD
     Трек |   Старт  | Длительность | Начальный сектор | Конечный сектор
    ---------------------------------------------------------------------
       1  |  0:00.00 |    3:59.26   |           0      |      17950
       2  |  3:59.26 |    3:28.24   |       17951      |      33574
       3  |  7:27.50 |    4:07.05   |       33575      |      52104
       4  | 11:34.55 |    3:00.56   |       52105      |      65660
       5  | 14:35.36 |    3:30.28   |       65661      |      81438
       6  | 18:05.64 |    3:41.52   |       81439      |      98065
       7  | 21:47.41 |    4:22.65   |       98066      |     117780
       8  | 26:10.31 |    3:31.11   |      117781      |     133616
       9  | 29:41.42 |    3:13.16   |      133617      |     148107
      10  | 32:54.58 |    3:36.40   |      148108      |     164347
      11  | 36:31.23 |    3:36.44   |      164348      |     180591
      12  | 40:07.67 |    3:52.32   |      180592      |     198023
      13  | 44:00.24 |    4:13.18   |      198024      |     217016
Характеристики диапазона извлечения и сообщения об ошибках
Выбранный диапазон
     Имя файла D:\Lossless\Игорь Куприянов\2007 - Адреналин\Куприянов - Адреналин.wav
     Пиковый уровень 99.6 %
     Скорость извлечения 4.6 X
     Качество диапазона 100.0 %
     CRC теста 5089DAB8
     CRC копии 5089DAB8
     Копирование... OK
Ошибок не произошло
AccurateRip: сводка
Трек  1  отсутствует в базе данных
Трек  2  отсутствует в базе данных
Трек  3  отсутствует в базе данных
Трек  4  отсутствует в базе данных
Трек  5  отсутствует в базе данных
Трек  6  отсутствует в базе данных
Трек  7  отсутствует в базе данных
Трек  8  отсутствует в базе данных
Трек  9  отсутствует в базе данных
Трек 10  отсутствует в базе данных
Трек 11  отсутствует в базе данных
Трек 12  отсутствует в базе данных
Трек 13  отсутствует в базе данных
Ни одного трека нет в базе AccurateRip
Конец отчёта
Код:
REM GENRE "Hard Rock"
REM DATE 2007
REM DISCID C70B4D0D
REM COMMENT "ExactAudioCopy v1.0b3"
PERFORMER "Куприянов"
TITLE "Адреналин"
FILE "Куприянов - Адреналин.flac" WAVE
  TRACK 01 AUDIO
    TITLE "Адреналин"
    PERFORMER "Куприянов"
    FLAGS DCP
    INDEX 01 00:00:00
  TRACK 02 AUDIO
    TITLE "Радиоволна"
    PERFORMER "Куприянов"
    FLAGS DCP
    INDEX 00 03:57:26
    INDEX 01 03:59:26
  TRACK 03 AUDIO
    TITLE "Чёрное солнце"
    PERFORMER "Куприянов"
    FLAGS DCP
    INDEX 00 07:25:50
    INDEX 01 07:27:50
  TRACK 04 AUDIO
    TITLE "Зеленый свет"
    PERFORMER "Куприянов"
    FLAGS DCP
    INDEX 00 11:32:55
    INDEX 01 11:34:55
  TRACK 05 AUDIO
    TITLE "Снежность"
    PERFORMER "Куприянов"
    FLAGS DCP
    INDEX 00 14:33:36
    INDEX 01 14:35:36
  TRACK 06 AUDIO
    TITLE "Городской жесткач"
    PERFORMER "Куприянов"
    FLAGS DCP
    INDEX 00 18:03:64
    INDEX 01 18:05:64
  TRACK 07 AUDIO
    TITLE "Сирена"
    PERFORMER "Куприянов"
    FLAGS DCP
    INDEX 00 21:45:41
    INDEX 01 21:47:41
  TRACK 08 AUDIO
    TITLE "Мама"
    PERFORMER "Куприянов"
    FLAGS DCP
    INDEX 00 26:08:31
    INDEX 01 26:10:31
    INDEX 02 29:39:36
  TRACK 09 AUDIO
    TITLE "Небо здесь"
    PERFORMER "Куприянов"
    FLAGS DCP
    INDEX 00 29:39:42
    INDEX 01 29:41:42
  TRACK 10 AUDIO
    TITLE "Зима"
    PERFORMER "Куприянов"
    FLAGS DCP
    INDEX 00 32:52:58
    INDEX 01 32:54:58
    INDEX 02 32:54:63
  TRACK 11 AUDIO
    TITLE "Эта жизнь"
    PERFORMER "Куприянов"
    FLAGS DCP
    INDEX 00 36:29:23
    INDEX 01 36:31:23
  TRACK 12 AUDIO
    TITLE "Мы вместе"
    PERFORMER "Куприянов"
    FLAGS DCP
    INDEX 00 40:05:67
    INDEX 01 40:07:67
  TRACK 13 AUDIO
    TITLE "Последний поезд (бонус)"
    PERFORMER "Куприянов"
    FLAGS DCP
    INDEX 00 43:58:24
    INDEX 01 44:00:24

01. Радиоголос (4:19)
02. Дым над Москвой (2:54)
03. Старый парк (3:20)
04. Москва - Петушки (3:34)
05. Шарманка (4:58)
06. Друг (3:55)
07. Навсегда (3:50)
08. В небо (3:05)
09. Душа (4:09)
10. Троллейбус №5 (2:44)
11. Я вернусь (3:54)
12. Чёрное солнце (бонус трек 2008 г.) (4:32)
13. Дым над Москвой (remix) (5:26)
Код:
Exact Audio Copy V1.0 beta 3 from 29. August 2011
Отчёт EAC об извлечении, выполненном 29. января 2013, 19:35
Куприянов / Дым Над Москвой
Дисковод: HL-DT-STDVDRAM GH70N   Adapter: 0  ID: 4
Режим чтения                 : Достоверность
Использование точного потока : Да
Отключение кэша аудио        : Да
Использование указателей C2  : Нет
Коррекция смещения при чтении                     : 667
Способность читать области Lead-in и Lead-out     : Нет
Заполнение пропущенных сэмплов тишиной            : Да
Удаление блоков с тишиной в начале и конце        : Нет
При вычислениях CRC использовались нулевые сэмплы : Да
Интерфейс                                         : Встроенный Win32-интерфейс для Win NT/2000
Выходной формат          : Пользовательский кодировщик
Выбранный битрейт        : 1024 kBit/s
Качество                 : Высокий
Добавление ID3-тега      : Нет
Утилита сжатия           : C:\Program Files (x86)\Exact Audio Copy\Flac\flac.exe
Дополнительные параметры : -V -8 %source%
TOC извлечённого CD
     Трек |   Старт  | Длительность | Начальный сектор | Конечный сектор
    ---------------------------------------------------------------------
       1  |  0:00.00 |    4:18.68   |           0      |      19417
       2  |  4:18.68 |    2:53.44   |       19418      |      32436
       3  |  7:12.37 |    3:20.12   |       32437      |      47448
       4  | 10:32.49 |    3:34.04   |       47449      |      63502
       5  | 14:06.53 |    4:57.46   |       63503      |      85823
       6  | 19:04.24 |    3:54.59   |       85824      |     103432
       7  | 22:59.08 |    3:50.27   |      103433      |     120709
       8  | 26:49.35 |    3:04.41   |      120710      |     134550
       9  | 29:54.01 |    4:09.06   |      134551      |     153231
      10  | 34:03.07 |    2:44.37   |      153232      |     165568
      11  | 36:47.44 |    3:53.50   |      165569      |     183093
      12  | 40:41.19 |    4:32.04   |      183094      |     203497
      13  | 45:13.23 |    5:25.53   |      203498      |     227925
      14  | 53:11.01 |   23:17.64   |      239326      |     344164
Характеристики диапазона извлечения и сообщения об ошибках
Выбранный диапазон
     Имя файла D:\Lossless\Игорь Куприянов\2008 - Дым Над Москвой\Куприянов - Дым Над Москвой.wav
     Пиковый уровень 100.0 %
     Скорость извлечения 1.9 X
     Качество диапазона 100.0 %
     CRC теста 508C93F7
     CRC копии 508C93F7
     Копирование... OK
Ошибок не произошло
AccurateRip: сводка
Трек  1  отсутствует в базе данных
Трек  2  отсутствует в базе данных
Трек  3  отсутствует в базе данных
Трек  4  отсутствует в базе данных
Трек  5  отсутствует в базе данных
Трек  6  отсутствует в базе данных
Трек  7  отсутствует в базе данных
Трек  8  отсутствует в базе данных
Трек  9  отсутствует в базе данных
Трек 10  отсутствует в базе данных
Трек 11  отсутствует в базе данных
Трек 12  отсутствует в базе данных
Трек 13  отсутствует в базе данных
Ни одного трека нет в базе AccurateRip
Конец отчёта
Код:
REM GENRE "Hard Rock"
REM DATE 2008
REM DISCID B311EC0E
REM COMMENT "ExactAudioCopy v1.0b3"
PERFORMER "Куприянов"
TITLE "Дым Над Москвой"
FILE "Куприянов - Дым Над Москвой.flac" WAVE
  TRACK 01 AUDIO
    TITLE "Радиоголос"
    PERFORMER "Куприянов"
    INDEX 01 00:00:00
  TRACK 02 AUDIO
    TITLE "Дым над Москвой"
    PERFORMER "Куприянов"
    INDEX 01 04:18:68
  TRACK 03 AUDIO
    TITLE "Старый парк"
    PERFORMER "Куприянов"
    INDEX 01 07:12:37
  TRACK 04 AUDIO
    TITLE "Москва - Петушки"
    PERFORMER "Куприянов"
    INDEX 01 10:32:49
  TRACK 05 AUDIO
    TITLE "Шарманка"
    PERFORMER "Куприянов"
    INDEX 01 14:06:53
  TRACK 06 AUDIO
    TITLE "Друг"
    PERFORMER "Куприянов"
    INDEX 01 19:04:24
  TRACK 07 AUDIO
    TITLE "Навсегда"
    PERFORMER "Куприянов"
    INDEX 01 22:59:08
  TRACK 08 AUDIO
    TITLE "В небо"
    PERFORMER "Куприянов"
    INDEX 01 26:49:35
  TRACK 09 AUDIO
    TITLE "Душа"
    PERFORMER "Куприянов"
    INDEX 01 29:54:01
  TRACK 10 AUDIO
    TITLE "Троллейбус №5"
    PERFORMER "Куприянов"
    INDEX 01 34:03:07
  TRACK 11 AUDIO
    TITLE "Я вернусь"
    PERFORMER "Куприянов"
    INDEX 01 36:47:44
  TRACK 12 AUDIO
    TITLE "Чёрное солнце (бонус трек 2008 г.)"
    PERFORMER "Куприянов"
    FLAGS DCP
    INDEX 01 40:41:19
  TRACK 13 AUDIO
    TITLE "Дым над Москвой (remix)"
    PERFORMER "Куприянов"
    FLAGS DCP
    INDEX 01 45:13:23

01. Небо здесь (4:21)
02. На моей земле (4:08)
03. Радиоволна (3:29)
04. Старый парк (3:22)
05. Фея летних снов (4:09)
06. Москва - Петушки (3:32)
07. Мой путь (Я ищу) (4:53)
08. Сто одиноких лет (4:36)
09. Адреналин (3:58)
10. Мама (3:43)
Код:
Exact Audio Copy V1.0 beta 3 from 29. August 2011
Отчёт EAC об извлечении, выполненном 22. июня 2013, 15:03
Куприянов / Юбилейный Концерт "50:35" (CD 1)
Дисковод: HL-DT-STDVDRAM GH70N   Adapter: 0  ID: 4
Режим чтения                 : Достоверность
Использование точного потока : Да
Отключение кэша аудио        : Да
Использование указателей C2  : Нет
Коррекция смещения при чтении                     : 667
Способность читать области Lead-in и Lead-out     : Нет
Заполнение пропущенных сэмплов тишиной            : Да
Удаление блоков с тишиной в начале и конце        : Нет
При вычислениях CRC использовались нулевые сэмплы : Да
Интерфейс                                         : Встроенный Win32-интерфейс для Win NT/2000
Выходной формат          : Пользовательский кодировщик
Выбранный битрейт        : 1024 kBit/s
Качество                 : Высокий
Добавление ID3-тега      : Нет
Утилита сжатия           : C:\Program Files (x86)\Exact Audio Copy\Flac\flac.exe
Дополнительные параметры : -V -8 %source%
TOC извлечённого CD
     Трек |   Старт  | Длительность | Начальный сектор | Конечный сектор
    ---------------------------------------------------------------------
       1  |  0:00.00 |    4:21.10   |           0      |      19584
       2  |  4:21.10 |    4:08.27   |       19585      |      38211
       3  |  8:29.37 |    3:29.13   |       38212      |      53899
       4  | 11:58.50 |    3:21.58   |       53900      |      69032
       5  | 15:20.33 |    4:08.66   |       69033      |      87698
       6  | 19:29.24 |    3:32.10   |       87699      |     103608
       7  | 23:01.34 |    4:53.00   |      103609      |     125583
       8  | 27:54.34 |    4:36.10   |      125584      |     146293
       9  | 32:30.44 |    3:58.29   |      146294      |     164172
      10  | 36:28.73 |    3:43.00   |      164173      |     180897
Характеристики диапазона извлечения и сообщения об ошибках
Выбранный диапазон
     Имя файла D:\Архив\Куприянов - Юбилейный Концерт ''50-35'' (CD 1).wav
     Пиковый уровень 100.0 %
     Скорость извлечения 1.6 X
     Качество диапазона 99.9 %
     CRC теста 882821F0
     CRC копии 882821F0
     Копирование... OK
Ошибок не произошло
AccurateRip: сводка
Трек  1  : извлечено точно (доверие 1)  [1000B498]  (AR v1)
Трек  2  : извлечено точно (доверие 1)  [8AFC7DEA]  (AR v1)
Трек  3  : извлечено точно (доверие 1)  [E5A1ABEB]  (AR v1)
Трек  4  : извлечено точно (доверие 1)  [AEAD811A]  (AR v1)
Трек  5  : извлечено точно (доверие 1)  [6AD1180E]  (AR v1)
Трек  6  : извлечено точно (доверие 1)  [5863AE81]  (AR v1)
Трек  7  : извлечено точно (доверие 1)  [4018937C]  (AR v1)
Трек  8  : извлечено точно (доверие 1)  [C15E225E]  (AR v1)
Трек  9  : извлечено точно (доверие 1)  [785CEDD5]  (AR v1)
Трек 10  : извлечено точно (доверие 1)  [524E2092]  (AR v1)
Все треки извлечены точно
Конец отчёта
Код:
REM GENRE "Hard Rock"
REM DATE 2011
REM DISCID 74096B0A
REM COMMENT "ExactAudioCopy v1.0b3"
PERFORMER "Куприянов"
TITLE "Юбилейный Концерт ''50:35'' (CD 1)"
FILE "Куприянов - Юбилейный Концерт ''50-35'' (CD 1).flac" WAVE
  TRACK 01 AUDIO
    TITLE "Небо здесь"
    PERFORMER "Куприянов"
    INDEX 01 00:00:00
  TRACK 02 AUDIO
    TITLE "На моей земле"
    PERFORMER "Куприянов"
    INDEX 00 04:19:10
    INDEX 01 04:21:10
  TRACK 03 AUDIO
    TITLE "Радиоволна"
    PERFORMER "Куприянов"
    INDEX 00 08:27:37
    INDEX 01 08:29:37
  TRACK 04 AUDIO
    TITLE "Старый парк"
    PERFORMER "Куприянов"
    INDEX 00 11:56:50
    INDEX 01 11:58:50
  TRACK 05 AUDIO
    TITLE "Фея летних снов"
    PERFORMER "Куприянов"
    INDEX 00 15:18:33
    INDEX 01 15:20:33
  TRACK 06 AUDIO
    TITLE "Москва - Петушки"
    PERFORMER "Куприянов"
    INDEX 00 19:27:24
    INDEX 01 19:29:24
  TRACK 07 AUDIO
    TITLE "Мой путь (Я ищу)"
    PERFORMER "Куприянов"
    INDEX 00 22:59:34
    INDEX 01 23:01:34
  TRACK 08 AUDIO
    TITLE "Сто одиноких лет"
    PERFORMER "Куприянов"
    INDEX 00 27:52:34
    INDEX 01 27:54:34
  TRACK 09 AUDIO
    TITLE "Адреналин"
    PERFORMER "Куприянов"
    INDEX 00 32:28:44
    INDEX 01 32:30:44
  TRACK 10 AUDIO
    TITLE "Мама"
    PERFORMER "Куприянов"
    INDEX 00 36:26:73
    INDEX 01 36:28:73

01. Снежность (4:35)
02. Чёрное солнце (4:34)
03. Я вернусь (3:52)
04. В небо (4:32)
05. Дым над Москвой (7:06)
06. Семь дней (4:32)
07. Танцы на краю (4:19)
08. Одинокий ангел (8:02)
09. На последний поезд (4:31)
10. Мы вместе (4:41)
Код:
Exact Audio Copy V1.0 beta 3 from 29. August 2011
Отчёт EAC об извлечении, выполненном 22. июня 2013, 18:51
Куприянов / Юбилейный Концерт "50:35" (CD 2)
Дисковод: HL-DT-STDVDRAM GH70N   Adapter: 0  ID: 4
Режим чтения                 : Достоверность
Использование точного потока : Да
Отключение кэша аудио        : Да
Использование указателей C2  : Нет
Коррекция смещения при чтении                     : 667
Способность читать области Lead-in и Lead-out     : Нет
Заполнение пропущенных сэмплов тишиной            : Да
Удаление блоков с тишиной в начале и конце        : Нет
При вычислениях CRC использовались нулевые сэмплы : Да
Интерфейс                                         : Встроенный Win32-интерфейс для Win NT/2000
Выходной формат          : Пользовательский кодировщик
Выбранный битрейт        : 1024 kBit/s
Качество                 : Высокий
Добавление ID3-тега      : Нет
Утилита сжатия           : C:\Program Files (x86)\Exact Audio Copy\Flac\flac.exe
Дополнительные параметры : -V -8 %source%
TOC извлечённого CD
     Трек |   Старт  | Длительность | Начальный сектор | Конечный сектор
    ---------------------------------------------------------------------
       1  |  0:00.00 |    4:35.19   |           0      |      20643
       2  |  4:35.19 |    4:34.29   |       20644      |      41222
       3  |  9:09.48 |    3:52.17   |       41223      |      58639
       4  | 13:01.65 |    4:32.21   |       58640      |      79060
       5  | 17:34.11 |    7:06.00   |       79061      |     111010
       6  | 24:40.11 |    4:32.03   |      111011      |     131413
       7  | 29:12.14 |    4:18.38   |      131414      |     150801
       8  | 33:30.52 |    8:02.00   |      150802      |     186951
       9  | 41:32.52 |    4:31.10   |      186952      |     207286
      10  | 46:03.62 |    4:40.38   |      207287      |     228324
Характеристики диапазона извлечения и сообщения об ошибках
Выбранный диапазон
     Имя файла D:\Архив\Куприянов - Юбилейный Концерт ''50-35'' (CD 2).wav
     Пиковый уровень 100.0 %
     Скорость извлечения 1.7 X
     Качество диапазона 100.0 %
     CRC теста A7345EEA
     CRC копии A7345EEA
     Копирование... OK
Ошибок не произошло
AccurateRip: сводка
Трек  1  отсутствует в базе данных
Трек  2  отсутствует в базе данных
Трек  3  отсутствует в базе данных
Трек  4  отсутствует в базе данных
Трек  5  отсутствует в базе данных
Трек  6  отсутствует в базе данных
Трек  7  отсутствует в базе данных
Трек  8  отсутствует в базе данных
Трек  9  отсутствует в базе данных
Трек 10  отсутствует в базе данных
Ни одного трека нет в базе AccurateRip
Конец отчёта
Код:
REM GENRE "Hard Rock"
REM DATE 2011
REM DISCID 870BE40A
REM COMMENT "ExactAudioCopy v1.0b3"
PERFORMER "Куприянов"
TITLE "Юбилейный Концерт ''50:35'' (CD 2)"
FILE "Куприянов - Юбилейный Концерт ''50-35'' (CD 2).flac" WAVE
  TRACK 01 AUDIO
    TITLE "Снежность"
    PERFORMER "Куприянов"
    INDEX 01 00:00:00
  TRACK 02 AUDIO
    TITLE "Чёрное солнце"
    PERFORMER "Куприянов"
    INDEX 00 04:33:19
    INDEX 01 04:35:19
  TRACK 03 AUDIO
    TITLE "Я вернусь"
    PERFORMER "Куприянов"
    INDEX 00 09:07:48
    INDEX 01 09:09:48
  TRACK 04 AUDIO
    TITLE "В небо"
    PERFORMER "Куприянов"
    INDEX 00 12:59:65
    INDEX 01 13:01:65
  TRACK 05 AUDIO
    TITLE "Дым над Москвой"
    PERFORMER "Куприянов"
    INDEX 00 17:32:11
    INDEX 01 17:34:11
  TRACK 06 AUDIO
    TITLE "Семь дней"
    PERFORMER "Куприянов"
    INDEX 00 24:38:11
    INDEX 01 24:40:11
  TRACK 07 AUDIO
    TITLE "Танцы на краю"
    PERFORMER "Куприянов"
    INDEX 00 29:10:14
    INDEX 01 29:12:14
  TRACK 08 AUDIO
    TITLE "Одинокий ангел"
    PERFORMER "Куприянов"
    INDEX 00 33:28:52
    INDEX 01 33:30:52
  TRACK 09 AUDIO
    TITLE "На последний поезд"
    PERFORMER "Куприянов"
    INDEX 00 41:30:52
    INDEX 01 41:32:52
  TRACK 10 AUDIO
    TITLE "Мы вместе"
    PERFORMER "Куприянов"
    INDEX 00 46:01:62
    INDEX 01 46:03:62
Куприянов Игорь Евгеньевич родился 16 ноября в Москве.
Ещё в школе собрал первую группу «Афалины». В состав группы вошли: Игорь Куприянов — вокал, бас; Игорь Гизатов — барабаны, затем Виктор Калашников; Владимир Титкин — гитара; Сергей Живопыров — гитара. За плечами была незаконченная музыкальная школа.
Вторая группа называлась «Арcис», в её состав входили: Игорь Куприянов — вокал, бас; Сергей Бурмистров — вокал, гитара; Виктор Котелевский — клавишные; Сергей Кудаев — барабаны. В последствии барабанщика заменил Павел Зюзин. Следующая группа была образована после службы Игоря в армии и называлась «Рокаппетит». Все эти группы были достаточно известны в своё время; музыканты, участвовавшие в этих и последующих проектах, потом играли в таких известных группах, как «Бригада С», «Ария», «Мастер», «Фортрос», «Рондо», «Чёрный кофе», «Тайм Аут», группа Константина Никольского.
В 1986 году Игорь Куприянов прослушивал гитаристов в новый проект. Пришёл гитарист по прозвищу «Костыль», который впоследствии играл в «Коррозии Металла». Он и познакомил Варшавского с Куприяновым. Они объединились, и с 1986 года по 1990 год в качестве бас-гитариста, вокалиста, автора и соавтора музыки и текстов Игорь записывает с группой «Чёрный Кофе» четыре самые продаваемые пластинки: кассетный альбом «Светлый металл» или «Знамя мира», «Миньон» в который вошли песни «Чёрный кофе», «Листья», «Звуки космоса», «Зимний портрет»; «Переступи порог» и «Вольному воля». По опросу газеты «Московский Комсомолец» в 1988 году лучший бас-гитарист, Игорь Куприянов занимает почётное третье место.
Покинув группу «Чёрный Кофе» в 1990 году Игорь организовал первый сольный проект в стиле мелодик-рок под названием «Кофеин», участвуя в нём в качестве певца, композитора, поэта, продюсера и со-аранжировщика. В этом же году был снят клип на песню «Прощай».
Первый сольный альбом Игоря «Попытка к бегству» вышел в 1991 году на виниле. В записи принимали участие: Игорь Куприянов — вокал, бэк-вокал, автор стихов и музыки; Олег Аваков — гитара, аранжировки; Игорь Кожин — гитара; Андрей Родин — ударные; Алесандр Кузьмичёв — бас-гитара; Леонид Россоховатский — клавишные; Бэк-вокал в песне «Прощай» Ю.Фролова Оформление альбома: художник В.Брыксин, текстовое оформление — А. Сидоров. На этот альбом было снято два концертных клипа «Фея летних снов» и «Ночная гостья». В этом альбоме соавтором стихов был старый друг и клавишник по проекту «Арcис» Виктор Котелевский.
Второй альбом вышел на лейбле «Полиграмм» в 1995 году под названием «Белый ветер». Соавтором стихов в двух песнях был поэт Владимир Баранов. Игорь Куприянов — вокал, бэк-вокал, гитара Андрей Кифияк — гитара Владимир Роздин — ударные Михаил Саушев — бас Леонил Россоховатский — клавиши аранжировка — Олег Аваков, фото — Игорь Примак
Третий альбом, записанный в 1997 году, не был издан вовремя одним из лейблов по причинам дефолта в стране, хотя были отсняты видеоклипы «Когда мне было 15 лет», «Я выбрал тебя». Данный альбом был весьма успешно обкатан в клубах.
С 1997 по 1998 год Игорь Куприянов является ведущим шоу «Самые-самые» на телеканале СТС. В 1991 году был участником шоу «Сталлоне Рокидс».
В 1995 году в составе футбольной команды «Фортуна» занял третье место в мини-чемпионате мира по футболу среди деятелей шоу-бизнеса в Лондоне. В 1998 году в составе «Фортуны» едет в Лондон для участия в матче с командой телеканала ITV, выигранном со счётом 7:0.
Хобби и увлечения: футбол, большой бильярд, чтение книг, плаванье, занятия в тренажерном зале, восточные единоборства.
В 2001 году вышла первая версия официального сайта, созданного при участии интернет-агентства iwda.group.
В 2003 году на фирме «Квадро» вышел альбом Игоря Куприянова «Семь дней», который был записан при одновременной игре всех музыкантов коллектива. Игорь Куприянов – вокал, бэк-вокал, гитара Дмитрий Симонов – бас-гитара Тигран Ванециан – барабаны Олег Абрамов – соло-гитара Этот материал на CD (в двух вариантах – обычный и коллекционный, с буклетом) по сей день пользуется спросом у меломанов.
В 2005 году была закончена работа над пятым по счету сольным альбомом – «Дым над Москвой». Причем, велась она на протяжении двух лет. Пока по ряду причин этот альбом так и не вышел в свет, хотя содержит немало ярких хитов. В записи принимали участие: Игорь Куприянов – вокал, бэк-вокал Виктор Булатов – гитары, клавишные Дмитрий Симонов – бас-гитара Андрей Булсимов – барабаны
В перерывах между записями группа активно гастролировала, принимала участие в концертах и фестивалях. В частности, Игорь Куприянов выступал на рок-фестивале «Эммаус» (в т.ч. в 2006 году), рок-фестивале в Пскове, на концертах, организованных байк-центром «Ночные волки». Например, закрывал крупный фестиваль, который проводился на берегу Москва-реки.
В 2006 году был разработан новый сайт Игоря Куприянова, в котором принимали участие Виктор Жучков, Иван Лысяков, Игорь Примак и Илья Елисеев.
В начале 2006 года Игорь Куприянов приступил к записи нового альбома под названием «Адреналин». Весь альбом был записан с его старым другом, барабанщиком Павлом Зюзиным, который также играл на клавишных и гитарах. Сведение материала, мастеринг и соло-гитара — Виктор Булатов. В песне «Адреналин» скрейтчи – Виктор Травин. Игорь Куприянов: вокал, бэк-вокал, бас-гитара, автор музыки и слов и продюсер альбома.
В начале 2007 года Игорь Куприянов распустил старую группу и собрал новую. Концертный состав этого периода выглядел так: соло-гитара — Игорь Аленгос, барабаны — Павел Зюзин, бас-гитара — Сергей Тимофеев, вокал и гитара — Игорь Куприянов. Но, в связи с плотной занятостью в других проектах, И. Аленгос и П. Зюзин покинули коллектив.
В то же время был снят видеоклип на заглавную песню, который можно увидеть не только на данном сайте, но и по многим интерактивным телеканалам: A-One, O2тв, Music Box и т.д.
В этом же году в группу на место ушедших музыкантов пришли новые и хорошо известные музыканты: легендарный барабанщик «Чёрного Кофе» — Сергей Черняков и молодой гитарист, рекомендованный на это место Дмитрием Четверговым, — Алексей Мащенко.
Новым составом группа отыграла на фестивалях «Измени своё завтра» и «Слава России, Слава Москве» в Кузьминках; «Территория культуры» в Лужниках, а также вместе с группой «Ария» стала хедлайнером крупного международного рок-фестиваля, проводившемся в городе Ужгород.
В апреле 2008 года в коллектив приходит новый участник — гитарист Zyggie. Группа активно работает над обновлением аранжировок и концертной программы, а также готовит к изданию альбом «Дым над Москвой».
--
Download / Скачать

Хотите скачать бесплатно? Зарегистрируйтесь на сайте (ссылка на регистрацию). Pirat.ca - самый быстрый торрент трекер в рунете!

Как скачивать  ·   Что такое торрент  ·   Рейтинг и ограничения

Показать сообщения:    
Ответить на тему

Текущее время: Сегодня 06:26

Часовой пояс: GMT + 4



Вы не можете начинать темы
Вы не можете отвечать на сообщения
Вы не можете редактировать свои сообщения
Вы не можете удалять свои сообщения
Вы не можете голосовать в опросах
Вы не можете прикреплять файлы к сообщениям
Вы не можете скачивать файлы

Майнать ▼