Образ Брюса Ли / Image of Bruce Lee (Чуан Янг / Chuan Yang) [1978 г., боевик, DVD9] MVO

Ответить на тему
 
Автор
Сообщение

Пост 08-Сен-2017 22:19

[Q] 

loxaba

Шкипер

-Образ Брюса Ли / Image of Bruce Lee-- Производство: Гонконг
Год выпуска: 1978 г.
Жанр: боевик
Продолжительность: 01:31:30
Перевод: Любительский (многоголосый, закадровый) [7ТВ]
Режиссёр: Чуан Янг / Chuan Yang-В ролях: Брюс Лай (Дракон), Лик Чун (инспектор Ван), Дана (Донна, агент Семь), Джон Чун (Стивен), Боло Ен (Кимура)-Описание: Таинственная смерть известного ювелира неожиданно "засвечивает" международную банду фальшивомонетчиков. Они готовы на все ради сохранения своих барышей. Но они не знают, что противостоять им будет Дракон Брюс Ли-
Качество видео: DVD9
Контейнер: VOB
Видео кодек: MPEG2
Аудио кодек: AC3
Видео: MPEG2, NTSC, 640х480 & 720x480, (4:3) 29,970 кадров/сек, 9500 Кбит/сек
Аудио: AC-3, 48,0 КГц, 2 канала, 320 Кбит/сек, 31,250 кадров/сек
Cубтитры: отсутствуют
Общее
Полное имя : E:\Temp\Фильмы\VIDEO_TS\Образ Брюса Ли.VOB
Формат : MPEG-PS
Размер файла : 85,2 Мбайт
Продолжительность : 1 м. 30 с.
Режим общего битрейта : Переменный
Общий поток : 7935 Кбит/сек
Видео
Идентификатор : 224 (0xE0)
Формат : MPEG Video
Версия формата : Version 2
Профиль формата : [email protected]
Параметр BVOP формата : Да
Параметр матрицы формата : По умолчанию
Параметр GOP формата : M=3, N=15
Структура изображения : Frame
Продолжительность : 1 м. 30 с.
Вид битрейта : Переменный
Битрейт : 7137 Кбит/сек
Максимальный битрейт : 9500 Кбит/сек
Ширина : 720 пикселей
Высота : 480 пикселей
Соотношение сторон : 4:3
Частота кадров : 29,970 (30000/1001) кадров/сек
Стандарт вещания : NTSC
Цветовое пространство : YUV
Субдискретизация насыщенности : 4:2:0
Битовая глубина : 8 бит
Тип развёртки : Чересстрочная
Порядок развёртки : Нижнее поле первое
Метод сжатия : С потерями
Бит/(Пиксели*Кадры) : 0.689
Временной код первого кадра : 00:01:36:15
Оригинал временного кода : Group of pictures header
GOP, открыто/закрыто : Закрыто
Размер потока : 76,6 Мбайт (90%)
Аудио #1
Идентификатор : 189 (0xBD)-128 (0x80)
Формат : AC-3
Формат/Информация : Audio Coding 3
Расширение режима : CM (complete main)
Параметр Endianness формата : Big
Режим смешивания : DVD-Video
Продолжительность : 1 м. 29 с.
Вид битрейта : Постоянный
Битрейт : 320 Кбит/сек
Каналы : 2 канала
Расположение каналов : Front: L R
Частота : 48,0 КГц
Частота кадров : 31,250 кадров/сек (1536 spf)
Битовая глубина : 16 бит
Метод сжатия : С потерями
Задержка видео : -52 мс.
Размер потока : 3,43 Мбайт (4%)
Аудио #2
Идентификатор : 189 (0xBD)-129 (0x81)
Формат : AC-3
Формат/Информация : Audio Coding 3
Расширение режима : CM (complete main)
Параметр Endianness формата : Big
Режим смешивания : DVD-Video
Продолжительность : 1 м. 29 с.
Вид битрейта : Постоянный
Битрейт : 320 Кбит/сек
Каналы : 2 канала
Расположение каналов : Front: L R
Частота : 48,0 КГц
Частота кадров : 31,250 кадров/сек (1536 spf)
Битовая глубина : 16 бит
Метод сжатия : С потерями
Задержка видео : -52 мс.
Размер потока : 3,43 Мбайт (4%)
Download / Скачать

Хотите скачать бесплатно? Зарегистрируйтесь на сайте (ссылка на регистрацию). Pirat.ca - самый быстрый торрент трекер в рунете!

Как скачивать  ·   Что такое торрент  ·   Рейтинг и ограничения

loxaba ®

Шкипер

27

Пост 13-Сен-2017 21:59 (спустя 4 дня)

[Q] 

Торент перезалил заново старый не качается
https://yadi.sk/d/JcaKxRAQ3Mrx95
[Профиль]  [ЛС] 
Показать сообщения:    
Ответить на тему

Текущее время: Сегодня 10:12

Часовой пояс: GMT + 4



Вы не можете начинать темы
Вы не можете отвечать на сообщения
Вы не можете редактировать свои сообщения
Вы не можете удалять свои сообщения
Вы не можете голосовать в опросах
Вы не можете прикреплять файлы к сообщениям
Вы не можете скачивать файлы

Майнать ▼