Уважаемый Гость!
Вы можете поддержать проект и зарегистрироваться у наших партнеров - онлайн-стратегия MyLands. При регистрации в игре Вы получите код, который сможете активировать после регистрации на pirat.ca и получить 1000 дублонов.

Ваш код:
d3bbd906dcd3cb9e17457607e92a6e485b6941fd
 
     

Аэроплан / Airplane! (Джим Эбрэхэмс / Jim Abrahams, Дэвид Цукер / David Zucker, Джерри Цукер / Jerry Zucker) [1980 г., комедия, BDRip, 1080p] MVO (R5, Акцент) AVO (Гаврилов, Михалев, Горчаков) + Original (Eng)

Ответить на тему
 
Автор
Сообщение

Пост 08-Апр-2016 12:05

[Q] 

Mollchun

Корсар

Аэроплан / Airplane!
Год выпуска: 1980
Производство: США
Жанр: комедия
Продолжительность: 01:27:42
Перевод: Профессиональный (многоголосый, закадровый) MVO (R5) (русский)
Перевод 2: Профессиональный (многоголосый, закадровый) MVO (Акцент) (русский)
Перевод 3: Профессиональный (многоголосый, закадровый) Акцент (русский)
Перевод 4: Авторский (одноголосый, закадровый) Андрей Гаврилов
Перевод 5: Авторский (одноголосый, закадровый) Алексей Михалев
Перевод 5: Авторский (одноголосый, закадровый) Василий Горчаков
Оригинальный аудиопоток: английский
Субтитры: English
Режиссер: Джим Эбрэхэмс / Jim Abrahams, Дэвид Цукер / David Zucker, Джерри Цукер / Jerry Zucker
В ролях: Роберт Хэйз, Джули Хэгерти, Роберт Стэк, Ллойд Бриджес, Питер Грэйвз, Лесли Нилсен, Лорна Пэттерсон, Стивен Стакер, Карим Абдул-Джаббар, Барбара Биллингсли
Описание: Роберт Хейс исполняет роль бывшего военного летчика, оказавшегося на борту самолета, экипаж которого из-за пищевого отравления оказался не в состоянии управлять аэробусом.
Хейс вместе со стюардессой вынуждены стать спасителями пестрой компании пассажиров, оказавшихся на грани гибели. Новоявленного пилота и его помощницу ждут немыслимые трудности и невероятные приключения.
Сэмпл , IMDB , КиноПоиск
Качество видео: BDRip-AVC
Контейнер: MKV
Стандарт разрешения: 1080p
Видео кодек: H.264
Аудио кодек: AC3, DTS
Видео: 1920x1080 pix, 11300 kbps, 23.976 fps
Аудио : 256 kbps, AC-3, 2 ch, 48.0 kHz - MVO (R5)
Аудио #2: 448 kbps, AC-3, 6 ch, 48.0 kHz - MVO (студия Акцент-Про по заказу ВГТРК Культура)
Аудио #3: 192 kbps, AC-3, 2 ch, 48.0 kHz - MVO
Аудио #4: 448 kbps, AC-3, 6 ch, 48.0 kHz - Андрей Гаврилов
Аудио #5: 384 kbps, AC-3, 6 ch, 48.0 kHz - Алексей Михалев
Аудио #6: 448 kbps, AC-3, 6 ch, 48.0 kHz - Василий Горчаков
Аудио #7: 1509 kbps, DTS, 6 ch, 48.0 kHz - English
Сергей Кудрявцев - рецензия КиноПоиск
http://www.kinopoisk.ru/review/835000/
«Очень смешная пародия на ленты из серии «Аэропорт», конечно же, на одноимённую книгу Артура Хейли, а также на фильмы-катастрофы, картины типа «Челюстей» да и на кино в целом. По высказыванию влиятельного американского критика Роджера Ибёрта, это «сатирическая антология кинематографических клише… и отсутствие оригинальных комических изобретений компенсируется полной готовностью авторов отовсюду украсть, выпросить, одолжить и просто переписать». Однако следует заметить: щедро рассыпанные по действию разнообразные шутки лучше действуют только в том случае, если зритель точно знает, что именно в этот момент пародируется. Иначе «Аэроплан!» не произведёт нужного эффекта.
Его громадный успех в прокате (скромный бюджет в размере $3,5 млн. был превзойдён почти в 24 раза, а по кассовым сборам ленте удалось занять 29-е место среди всех американских кинопроизведений 70-х годов) позволил троице режиссёров — Джиму Эбрахамсу и братьям Зукер — продолжить серию пародий. Сначала — на полицейские картины (телесериал «Полицейское подразделение!»; а два фильма для кинопроката под общим названием «С пистолетом наголо» снял Дэвид Зукер уже в одиночку), затем — на ленты про шпионов («Совершенно секретно!») и гангстеров («Безжалостные люди»). А начинали все они, между прочим, в театре пародий («Кентуккская театральная солянка»). Один из придуманных ими сюжетов экранизировал в 1977 году Джон Лэндис в своей картине «Кентуккская киносолянка». Потом эта группа распалась, и каждый из режиссёров работал уже самостоятельно. Вторую серию «Аэроплана!» снял через два года Кен Финклмен, хоть и с теми же актёрами, но менее удачно и с разочаровывающими прокатными результатами.
1989»
Общее
Уникальный идентификатор : 237147685918022536449159982517978211213 (0xB268FBA2F322E5998BF841D25DC1238D)
Общее
Уникальный идентификатор : 237147685918022536449159982517978211213 (0xB268FBA2F322E5998BF841D25DC1238D)
Полное имя : G:\Раздачи\Airplane.1980_1080p.BDRip[pirat.ca].mkv
Формат : Matroska
Версия формата : Version 2
Размер файла : 9,21 Гбайт
Продолжительность : 1 ч. 27 м.
Общий поток : 15,0 Мбит/сек
Название фильма : Airplane.1980.BluRay.1080p.x264.DTS.DD20.DualAudio.MySilu [СПАМ.org]
Дата кодирования : UTC 2011-11-06 15:28:04
Программа кодирования : mkvmerge v4.9.1 ('Ich will') сборка от Jul 11 2011 23:53:15
Библиотека кодирования : libebml v1.2.1 + libmatroska v1.1.1
Видео
Идентификатор : 1
Формат : AVC
Формат/Информация : Advanced Video Codec
Профиль формата : [email protected]
Параметр CABAC формата : Да
Параметр ReFrames формата : 4 кадра
Идентификатор кодека : V_MPEG4/ISO/AVC
Продолжительность : 1 ч. 27 м.
Битрейт : 11,3 Мбит/сек
Ширина : 1920 пикселей
Высота : 1080 пикселей
Соотношение сторон : 16:9
Режим частоты кадров : Постоянный
Частота кадров : 23,976 (24000/1001) кадра/сек
Цветовое пространство : YUV
Субдискретизация насыщенности : 4:2:0
Битовая глубина : 8 бит
Тип развёртки : Прогрессивная
Бит/(Пиксели*Кадры) : 0.228
Размер потока : 6,77 Гбайт (73%)
Заголовок : Airplane.1980.BluRay.1080p.x264.DTS.DD20.DualAudio.MySilu
Библиотека кодирования : x264 core 118 r2085 8a62835
Настройки программы : cabac=1 / ref=4 / deblock=1:-2:-2 / analyse=0x3:0x113 / me=umh / subme=10 / psy=1 / psy_rd=1.20:0.20 / mixed_ref=1 / me_range=32 / chroma_me=1 / trellis=2 / 8x8dct=1 / cqm=0 / deadzone=21,11 / fast_pskip=0 / chroma_qp_offset=-3 / threads=9 / sliced_threads=0 / nr=0 / decimate=0 / interlaced=0 / bluray_compat=0 / constrained_intra=0 / bframes=5 / b_pyramid=2 / b_adapt=2 / b_bias=0 / direct=3 / weightb=1 / open_gop=0 / weightp=2 / keyint=250 / keyint_min=2 / scenecut=40 / intra_refresh=0 / rc_lookahead=72 / rc=2pass / mbtree=1 / bitrate=11343 / ratetol=1.0 / qcomp=0.60 / qpmin=10 / qpmax=51 / qpstep=4 / cplxblur=20.0 / qblur=0.5 / vbv_maxrate=38000 / vbv_bufsize=38000 / nal_hrd=none / ip_ratio=1.40 / aq=1:1.00
Язык : English
Default : Да
Forced : Нет
Аудио #1
Идентификатор : 2
Формат : AC-3
Формат/Информация : Audio Coding 3
Расширение режима : CM (complete main)
Параметр Endianness формата : Big
Идентификатор кодека : A_AC3
Продолжительность : 1 ч. 27 м.
Вид битрейта : Постоянный
Битрейт : 256 Кбит/сек
Каналы : 2 канала
Расположение каналов : Front: L R
Частота : 48,0 КГц
Частота кадров : 31,250 кадров/сек (1536 spf)
Метод сжатия : С потерями
Размер потока : 161 Мбайт (2%)
Заголовок : MVO [R5]
Язык : Russian
Default : Да
Forced : Нет
Аудио #2
Идентификатор : 3
Формат : AC-3
Формат/Информация : Audio Coding 3
Расширение режима : CM (complete main)
Параметр Endianness формата : Big
Идентификатор кодека : A_AC3
Продолжительность : 1 ч. 27 м.
Вид битрейта : Постоянный
Битрейт : 448 Кбит/сек
Каналы : 6 каналов
Расположение каналов : Front: L C R, Side: L R, LFE
Частота : 48,0 КГц
Частота кадров : 31,250 кадров/сек (1536 spf)
Метод сжатия : С потерями
Размер потока : 281 Мбайт (3%)
Заголовок : MVO [студия Акцент-Про по заказу ВГТРК Культура]
Язык : Russian
Default : Нет
Forced : Нет
Аудио #3
Идентификатор : 4
Формат : AC-3
Формат/Информация : Audio Coding 3
Расширение режима : CM (complete main)
Параметр Endianness формата : Big
Идентификатор кодека : A_AC3
Продолжительность : 1 ч. 27 м.
Вид битрейта : Постоянный
Битрейт : 192 Кбит/сек
Каналы : 2 канала
Расположение каналов : Front: L R
Частота : 48,0 КГц
Частота кадров : 31,250 кадров/сек (1536 spf)
Метод сжатия : С потерями
Размер потока : 120 Мбайт (1%)
Заголовок : MVO
Язык : Russian
Default : Нет
Forced : Нет
Аудио #4
Идентификатор : 5
Формат : AC-3
Формат/Информация : Audio Coding 3
Расширение режима : CM (complete main)
Параметр Endianness формата : Big
Идентификатор кодека : A_AC3
Продолжительность : 1 ч. 27 м.
Вид битрейта : Постоянный
Битрейт : 448 Кбит/сек
Каналы : 6 каналов
Расположение каналов : Front: L C R, Side: L R, LFE
Частота : 48,0 КГц
Частота кадров : 31,250 кадров/сек (1536 spf)
Метод сжатия : С потерями
Размер потока : 281 Мбайт (3%)
Заголовок : AVO [Андрей Гаврилов]
Язык : Russian
Default : Нет
Forced : Нет
Аудио #5
Идентификатор : 6
Формат : AC-3
Формат/Информация : Audio Coding 3
Расширение режима : CM (complete main)
Параметр Endianness формата : Big
Идентификатор кодека : A_AC3
Продолжительность : 1 ч. 27 м.
Вид битрейта : Постоянный
Битрейт : 384 Кбит/сек
Каналы : 6 каналов
Расположение каналов : Front: L C R, Side: L R, LFE
Частота : 48,0 КГц
Частота кадров : 31,250 кадров/сек (1536 spf)
Метод сжатия : С потерями
Размер потока : 241 Мбайт (3%)
Заголовок : AVO [Алексей Михалев]
Язык : Russian
Default : Нет
Forced : Нет
Аудио #6
Идентификатор : 7
Формат : AC-3
Формат/Информация : Audio Coding 3
Расширение режима : CM (complete main)
Параметр Endianness формата : Big
Идентификатор кодека : A_AC3
Продолжительность : 1 ч. 27 м.
Вид битрейта : Постоянный
Битрейт : 448 Кбит/сек
Каналы : 6 каналов
Расположение каналов : Front: L C R, Side: L R, LFE
Частота : 48,0 КГц
Частота кадров : 31,250 кадров/сек (1536 spf)
Метод сжатия : С потерями
Размер потока : 281 Мбайт (3%)
Заголовок : AVO [Василий Горчаков]
Язык : Russian
Default : Нет
Forced : Нет
Аудио #7
Идентификатор : 8
Формат : DTS
Формат/Информация : Digital Theater Systems
Режим : 16
Параметр Endianness формата : Big
Идентификатор кодека : A_DTS
Продолжительность : 1 ч. 27 м.
Вид битрейта : Постоянный
Битрейт : 1509 Кбит/сек
Каналы : 6 каналов
Расположение каналов : Front: L C R, Side: L R, LFE
Частота : 48,0 КГц
Частота кадров : 93,750 кадра/сек (512 spf)
Битовая глубина : 24 бит
Метод сжатия : С потерями
Размер потока : 947 Мбайт (10%)
Язык : English
Default : Нет
Forced : Нет
Текст
Идентификатор : 9
Формат : UTF-8
Идентификатор кодека : S_TEXT/UTF8
Идентификатор кодека/Информация : UTF-8 Plain Text
Язык : English
Default : Нет
Forced : Нет
Меню
00:00:00.000 : en:00:00:00.000
00:04:28.852 : en:00:04:28.852
00:07:04.549 : en:00:07:04.549
00:10:38.888 : en:00:10:38.888
00:13:21.217 : en:00:13:21.217
00:15:47.655 : en:00:15:47.655
00:21:42.092 : en:00:21:42.092
00:24:50.572 : en:00:24:50.572
00:27:06.917 : en:00:27:06.917
00:30:44.551 : en:00:30:44.551
00:33:14.618 : en:00:33:14.618
00:35:52.442 : en:00:35:52.442
00:40:43.107 : en:00:40:43.107
00:45:48.537 : en:00:45:48.537
00:48:38.374 : en:00:48:38.374
00:51:12.278 : en:00:51:12.278
00:54:08.120 : en:00:54:08.120
00:56:17.040 : en:00:56:17.040
00:58:42.894 : en:00:58:42.894
01:01:59.883 : en:01:01:59.883
01:06:47.545 : en:01:06:47.545
01:10:38.568 : en:01:10:38.568
01:12:17.124 : en:01:12:17.124
01:15:28.566 : en:01:15:28.566
01:19:57.668 : en:01:19:57.668
01:23:02.519 : en:01:23:02.519
Download / Скачать

Хотите скачать бесплатно? Зарегистрируйтесь на сайте (ссылка на регистрацию). Pirat.ca - самый быстрый торрент трекер в рунете!

Как скачивать  ·   Что такое торрент  ·   Рейтинг и ограничения

Пост 08-Апр-2016 20:52 (спустя 8 часов)

Топик был перенесен из форума DVD / HD с Авторским переводом (Трюм) в форум HD (Фильмы с Авторским переводом)
gross1978
 

s_s

Гроза морей

Пост 08-Апр-2016 21:10 (спустя 9 часов)

[Q] 

Спасибо, этот вечер удастся:)

_________________
в себе самом добра со злом
[Профиль]  [ЛС] 

Mollchun ®

Корсар

2063

Пост 08-Апр-2016 22:37 (спустя 1 час 26 минут)

[Q] 

Пожалуйста...)
[Профиль]  [ЛС] 

Ustas3003

Морской Волк

Пост 09-Апр-2016 05:43 (спустя 7 часов)

[Q] 

Спасибо! Сегодня понастальгируем ))
[Профиль]  [ЛС] 

Towelie

Корсар

13

Пост 15-Сен-2017 23:58 (спустя 1 год 5 месяцев)

[Q] 

раздайте пожалуйста
[Профиль]  [ЛС] 
Показать сообщения:    
Ответить на тему

Текущее время: Сегодня 09:48

Часовой пояс: GMT + 4



Вы не можете начинать темы
Вы не можете отвечать на сообщения
Вы не можете редактировать свои сообщения
Вы не можете удалять свои сообщения
Вы не можете голосовать в опросах
Вы не можете прикреплять файлы к сообщениям
Вы не можете скачивать файлы

▼ Вниз