Паприка / Paprika (Тинто Брасс / Tinto Brass) [1991 г., драма, для взрослых, BDRip, 720p] DVO

Ответить на тему
 
Автор
Сообщение

Пост 30-Дек-2016 22:13

[Q] 

somik

-Паприка / Paprika-- Производство: Италия, Adriana Chiesa Enterprises
Год выпуска: 1991 г.
Жанр: драма, для взрослых
Продолжительность: 01:55:51
Мировая премьера: 13 февраля 1991
Дата выхода DVD: 4 ноября 2003, «Союз-Видео»
Перевод: Профессиональный (двухголосый, закадровый) [R5]
Режиссер: Тинто Брасс / Tinto Brass-В ролях: Дебора Каприольо, Стефан Феррара, Мартина Брошар, Стефани Бонне, Россана Гавинель, Ренцо Ринальди, Нина Солдано, Клара Альгранти, Лучана Чиренеи, Джон Стайнер-Описание: Желая помочь своему жениху, Мима решает подзаработать в публичном доме. Наивная и рискованная затея вовлекает Миму в цепь эротических приключений, из которой не так-то легко выбраться. Но жених обманул ее и скрылся. Тогда девушка решает сделать свое временное занятие профессией всей жизни. Мима, за свой горячий нрав и необузданную чувственность прозванная Паприкой, кочует из борделя в бордель, и однажды судьба делает девушке роскошный подарок в лице эксцентричного аристократа, предложившего ей руку и сердце…-
Качество видео: BDRip
Контейнер: MKV
Стандарт разрешения: 720p
Видео кодек: MPEG4 AVC
Аудио кодек: AC3
Видео: 1200x720 at 23.976, [email protected], 10100 kbps avg
Аудио: 48 kHz, AC3, 2/0 (L,R) ch, 192.00 kbps avg
Cубтитры: русские, английские
Формат субтитров: softsub (SRT)
Доп. информация о субтитрах: включаемые
Никогда до «Паприки» не смотрела фильмов Тинто Брасса. Как то не пришлось.
Фильм меня очаровал своей легкостью и веселым нравом главной героини. Она любит секс и рада дарить любовь мужчинам.
В фильме показана внутренняя жизнь публичного дома и отношения между его обитательницами. Это всегда интригует и вызывает острый интерес у обывателей. Хочется хоть краешком глаза подглянуть за красотками работающими в борделе. И с помощью этого фильма нам такая возможность дана!
10 из 10
Общее
Уникальный идентификатор : 240330352970139298836228392912879943765 (0xB4CDF13CBCDD2DE2B7FF1CF22D3D0055)
Полное имя : J:\Паприка Paprika (1991) BDRip 720p P2\Paprika.1991.BDRip.720p.[pirat.ca].mkv
Формат : Matroska
Версия формата : Version 2
Размер файла : 8,52 Гбайт
Продолжительность : 1 ч. 55 м.
Общий поток : 10,5 Мбит/сек
Название фильма : Release for СПАМ
Дата кодирования : UTC 2016-12-30 17:24:19
Программа кодирования : mkvmerge v5.3.0 ('I could have danced') built on Feb 9 2012 10:38:07
Библиотека кодирования : libebml v1.2.3 + libmatroska v1.3.0
Обложка : Yes
Attachments : Cover.jpg
Видео
Идентификатор : 1
Формат : AVC
Формат/Информация : Advanced Video Codec
Профиль формата : [email protected]
Параметр CABAC формата : Да
Параметр ReFrames формата : 9 кадров
Идентификатор кодека : V_MPEG4/ISO/AVC
Продолжительность : 1 ч. 55 м.
Битрейт : 10,1 Мбит/сек
Ширина : 1200 пикселей
Высота : 720 пикселей
Соотношение сторон : 5:3
Режим частоты кадров : Постоянный
Частота кадров : 23,976 (24000/1001) кадра/сек
Цветовое пространство : YUV
Субдискретизация насыщенности : 4:2:0
Битовая глубина : 8 бит
Тип развёртки : Прогрессивная
Бит/(Пиксели*Кадры) : 0.489
Размер потока : 8,19 Гбайт (96%)
Библиотека кодирования : x264 core 148 r2692.11 7386685 VietHD_Custom_64
Настройки программы : cabac=1 / ref=9 / deblock=1:-3:-3 / analyse=0x3:0x133 / me=umh / subme=10 / psy=1 / fade_compensate=0.00 / psy_rd=1.15:0.00 / mixed_ref=1 / me_range=24 / chroma_me=1 / trellis=2 / 8x8dct=1 / cqm=0 / deadzone=21,11 / fast_pskip=0 / chroma_qp_offset=-2 / threads=12 / lookahead_threads=2 / sliced_threads=0 / nr=0 / decimate=0 / interlaced=0 / bluray_compat=0 / constrained_intra=0 / fgo=0 / bframes=7 / b_pyramid=2 / b_adapt=2 / b_bias=0 / direct=3 / weightb=1 / open_gop=0 / weightp=2 / keyint=250 / keyint_min=23 / scenecut=40 / intra_refresh=0 / rc_lookahead=60 / rc=crf / mbtree=0 / crf=14.3000 / qcomp=0.68 / qpmin=0:0:0 / qpmax=69:69:69 / qpstep=4 / vbv_maxrate=62500 / vbv_bufsize=78125 / crf_max=0.0 / nal_hrd=none / filler=0 / ip_ratio=1.30 / pb_ratio=1.20 / aq=3:0.60 / aq-sensitivity=10.00 / aq-factor=1.00:1.00:1.00 / aq2=0 / aq3=0
Язык : English
Default : Да
Forced : Нет
Statistics Tags Issue : mkvmerge v9.0.1 ('Obstacles') 64bit 2016-05-03 12:31:26 / mkvmerge v5.3.0 ('I could have danced') built on Feb 9 2012 10:38:07 2016-12-30 17:24:19
FromStats_BitRate : 10333628
FromStats_Duration : 01:55:51.236000000
FromStats_FrameCount : 166663
FromStats_StreamSize : 8978935920
Аудио
Идентификатор : 2
Формат : AC-3
Формат/Информация : Audio Coding 3
Расширение режима : CM (complete main)
Параметр Endianness формата : Big
Идентификатор кодека : A_AC3
Продолжительность : 1 ч. 55 м.
Вид битрейта : Постоянный
Битрейт : 192 Кбит/сек
Каналы : 2 канала
Расположение каналов : Front: L R
Частота : 48,0 КГц
Частота кадров : 31,250 кадров/сек (1536 spf)
Метод сжатия : С потерями
Размер потока : 159 Мбайт (2%)
Заголовок : DVO
Язык : Russian
Default : Да
Forced : Нет
Statistics Tags Issue : mkvmerge v9.0.1 ('Obstacles') 64bit 2016-05-03 12:31:26 / mkvmerge v5.3.0 ('I could have danced') built on Feb 9 2012 10:38:07 2016-12-30 17:24:19
FromStats_BitRate : 192000
FromStats_Duration : 01:55:48.608000000
FromStats_FrameCount : 217144
FromStats_StreamSize : 166766592
Текст #1
Идентификатор : 3
Формат : UTF-8
Идентификатор кодека : S_TEXT/UTF8
Идентификатор кодека/Информация : UTF-8 Plain Text
Язык : Russian
Default : Нет
Forced : Нет
Текст #2
Идентификатор : 4
Формат : UTF-8
Идентификатор кодека : S_TEXT/UTF8
Идентификатор кодека/Информация : UTF-8 Plain Text
Язык : English
Default : Нет
Forced : Нет
Меню
00:00:00.000 : en:00:00:00.000
00:11:48.249 : en:00:11:48.249
00:18:56.177 : en:00:18:56.177
00:27:10.087 : en:00:27:10.087
00:38:14.667 : en:00:38:14.667
00:51:11.485 : en:00:51:11.485
00:58:07.275 : en:00:58:07.275
01:09:22.116 : en:01:09:22.116
01:18:22.823 : en:01:18:22.823
01:29:18.770 : en:01:29:18.770
01:40:59.512 : en:01:40:59.512
01:53:43.316 : en:01:53:43.316
Download / Скачать

Хотите скачать бесплатно? Зарегистрируйтесь на сайте (ссылка на регистрацию). Pirat.ca - самый быстрый торрент трекер в рунете!

Как скачивать  ·   Что такое торрент  ·   Рейтинг и ограничения

raul kurochka

Флибустьер

Пост 31-Дек-2016 15:45 (спустя 17 часов)

[Q] 

Ооо!)) Самая любимая лента Брасса) Как щас помню:
- ......
- что ты молчишь? тебе не нравится?
- я не разговариваю с теми, кого #$%^% в кишку...
Качаю однозначно!
Отворяйте трюм, старина!
Лови бочку

_________________
...ЧО ТАКОЙ СЕРЬЕЗНЫЙ???
[Профиль]  [ЛС] 

italiano711

Гроза морей

42

Пост 16-Сен-2017 12:56 (спустя 8 месяцев 15 дней)

[Q] 

Да, фильмец один из лучших "старого извращенца"))
[Профиль]  [ЛС] 
Показать сообщения:    
Ответить на тему

Текущее время: Сегодня 16:36

Часовой пояс: GMT + 4



Вы не можете начинать темы
Вы не можете отвечать на сообщения
Вы не можете редактировать свои сообщения
Вы не можете удалять свои сообщения
Вы не можете голосовать в опросах
Вы не можете прикреплять файлы к сообщениям
Вы не можете скачивать файлы

Майнать ▼