Уважаемый Гость!
Вы можете поддержать проект и зарегистрироваться у наших партнеров - онлайн-стратегия MyLands. При регистрации в игре Вы получите код, который сможете активировать после регистрации на pirat.ca и получить 1000 дублонов.

Ваш код:
26839cd8c6b4848714d1d2f8fd66233fc251c7ab
 
     

Любовь без правил (Дмитрий Астрахан) [2016 г., комедия, WEB-DLRip] Original (RUS)[iTunes Russia]

Ответить на тему
 
Автор
Сообщение

Пост 26-Дек-2016 07:58

[Q] 

aleksey99

--Любовь без правил--«Народная комедия про это»-- Производство: Россия, Беларусьфильм, Каскад
Год выпуска: 2016 г.
Жанр: комедия
Продолжительность: 01:30:02--Российская премьера: 10 ноября 2016, «Каропрокат»--Режиссер: Дмитрий Астрахан--В ролях: Виктор Васильев, Анна Горшкова, Олег Васильков, Ирина Погодина, Анна Назарова, Иван Щетко, Софья Синицына, Наталья Барановская, Людмила Баталова, Георгий Малявский--Описание: В городе Зареченске жены часто отказывали мужьям. Когда же проблема накрыла и мэра города, Сергей Николаевич не стал терпеть и начал действовать. С родственником жены, местным олигархом, они решают перепрофилировать построенный на противоположном берегу реки санаторий в «Оздоровительный центр». Для чего бизнесмен приглашает из столицы специально обученный «медицинский персонал». И вот уже на другую сторону реки пришвартовывается катер с симпатичными, молодыми и очень профессиональными «медсестрами» и «санитарками». Вооружившись биноклями зареченские жены придирчиво рассматривают конкуренток. А что-же мужья? Надев парадные костюмы и галстуки они садятся в лодки и через несколько минут оказываются на другом берегу, среди молодых, красивых, покладистых и совсем не стервозных девушек. Другие правила или наоборот, любовь без правил?-- --Качество видео: WEB-DLRip
Контейнер: AVI
Видео кодек: XviD
Аудио кодек: AC3
Видео: 720x304 (2.37:1), 25 fps, XviD build 50 ~1779 kbps avg, 0.33 bit/pixel
Аудио: 48 kHz, AC3 Dolby Digital, 2/0 (L,R) ch, ~384 kbps
Cубтитры: отсутствуют
Общее
Полное имя : H:\Torrent2\Love.Baz.PraviLL.2O16.O.WEB-DLRip.14OOMB.avi
Формат : AVI
Формат/Информация : Audio Video Interleave
Размер файла : 1,37 Гбайт
Продолжительность : 1 ч. 30 м.
Общий поток : 2174 Кбит/сек
Программа кодирования : VirtualDubMod 1.5.10.2 (build 2540/release)
Библиотека кодирования : VirtualDubMod build 2540/release
Видео
Идентификатор : 0
Формат : MPEG-4 Visual
Профиль формата : Advanced [email protected]
Параметр BVOP формата : 2
Параметр QPel формата : Нет
Параметр GMC формата : Без точки перехода
Параметр матрицы формата : Default (MPEG)
Идентификатор кодека : XVID
Идентификатор кодека/Подсказка : XviD
Продолжительность : 1 ч. 30 м.
Битрейт : 1780 Кбит/сек
Ширина : 720 пикселей
Высота : 304 пикселя
Соотношение сторон : 2,35:1
Частота кадров : 25,000 кадров/сек
Цветовое пространство : YUV
Субдискретизация насыщенности : 4:2:0
Битовая глубина : 8 бит
Тип развёртки : Прогрессивная
Метод сжатия : С потерями
Бит/(Пиксели*Кадры) : 0.325
Размер потока : 1,12 Гбайт (82%)
Библиотека кодирования : XviD 1.2.1 (UTC 2008-12-04)
Аудио
Идентификатор : 1
Формат : AC-3
Формат/Информация : Audio Coding 3
Расширение режима : CM (complete main)
Параметр Endianness формата : Big
Идентификатор кодека : 2000
Продолжительность : 1 ч. 30 м.
Вид битрейта : Постоянный
Битрейт : 384 Кбит/сек
Каналы : 2 канала
Расположение каналов : Front: L R
Частота : 48,0 КГц
Частота кадров : 31,250 кадров/сек (1536 spf)
Метод сжатия : С потерями
Размер потока : 247 Мбайт (18%)
Выравнивание : Разделение по промежуткам
Продолжительность промежутка : 40 мс. (1,00 видеокадр)
Время предзагрузки промежутка : 500 мс.
Трейлер
Download / Скачать

Хотите скачать бесплатно? Зарегистрируйтесь на сайте (ссылка на регистрацию). Pirat.ca - самый быстрый торрент трекер в рунете!

Как скачивать  ·   Что такое торрент  ·   Рейтинг и ограничения

zvernight

Флибустьер

Пост 26-Дек-2016 11:06 (спустя 3 часа)

[Q] 

комедия отличная Супер!
Всем качать!!!
[Профиль]  [ЛС] 

demon-292

Корсар

Пост 26-Дек-2016 21:57 (спустя 10 часов)

[Q] 

Посморим, спасибо! Автору респект!!!
[Профиль]  [ЛС] 

aka_johnny

Флибустьер

Пост 27-Дек-2016 01:06 (спустя 3 часа)

[Q] 

видел я в больничке итоги))))
[Профиль]  [ЛС] 

ТАЛИ

Флибустьер

Пост 28-Дек-2016 00:26 (спустя 23 часа)

[Q] 

У Астрахана свой особый стиль - герои в его фильмах все простоватые и с легкой придурью. И вроде как ты смотришь незамысловатую комедию или даже мелодраму ( но с обязательным, пусть даже за уши вытянутым, хэппиэндом), а ощущение такое, что какую-то социалочку показали... И Астрахан такой - косит под наивного, добродушного дурачка, а на самом деле он самый что ни на есть жесткий сатирик, людей не любит и стебется над их пороками и общей недалекостью. В своем роде это даже талантливо, этакий Вуди Ален, только без его изящества и тщательных диалогов. Поэтому Вуди Алена можно смотреть бесконечно, а от Астрахана сразу изжога.
[Профиль]  [ЛС] 

realyu

Корсар

Пост 28-Дек-2016 01:59 (спустя 1 час 33 минуты)

[Q] 

удалено, дабы у Курочки (ник такой) пукан не разрывало
[Профиль]  [ЛС] 

fanar

15

Пост 29-Дек-2016 20:06 (спустя 1 день 18 часов)

[Q] 

такого %:;% давненько не видел. весь фильм звучит "бабы дуры, надо давать мужикам".
смотреть исключительно в случае проблем с супругой, для демонстрации альтернативы.
Отказать
[Профиль]  [ЛС] 

alexman

Корсар

Пост 30-Дек-2016 19:38 (спустя 23 часа)

[Q] 

Всё наиграно) Но фильм можно посмотреть разок Спасибо!!!
[Профиль]  [ЛС] 

vvvovchik

Лоцман

Пост 03-Янв-2017 15:07 (спустя 3 дня)

[Q] 

фильм можно посмотреть
[Профиль]  [ЛС] 

pan_tera

Корсар

Пост 04-Янв-2017 19:58 (спустя 1 день 4 часа)

[Q] 

ТАЛИ, спасибо посмотрим.
[Профиль]  [ЛС] 

Alexkrym

Шкипер

Пост 05-Янв-2017 11:17 (спустя 15 часов)

[Q] 

лично для меня все фильмы Астрахана идут мимо) даже не буду пытаться смотреть!

_________________
Оставшись Господу верны Пройдём мы жизни круговерти А те кто бросил вызов смерти Уходят в лучшие Миры
[Профиль]  [ЛС] 

Пост 25-Янв-2017 11:16 (спустя 19 дней)

Топик был перенесен из форума Новинки (HD|DVD|BD| TV|SAT|PDTV| - Rips) в форум Российские фильмы
aleksey99
 

lexaspirit

Пост 27-Фев-2017 20:33 (спустя 1 месяц 22 дня)

[Q] 

Фильм с оригинальным сюжетом. Смотреть можно. Местами просто ржач. Потраченного времени на просмотр не жалко

_________________
-------------------- ----------------------
[Профиль]  [ЛС] 

tyulen29

Шкипер

Пост 17-Мар-2017 18:42 (спустя 17 дней)

[Q] 

под стакан отлично.нам с супругой понравился
[Профиль]  [ЛС] 

vasdas

Корсар

Пост 18-Сен-2017 06:09 (спустя 6 месяцев)

[Q] 

соглашусь, под стакан великолепно Зуб даю...
[Профиль]  [ЛС] 
Показать сообщения:    
Ответить на тему

Текущее время: Сегодня 08:07

Часовой пояс: GMT + 4



Вы не можете начинать темы
Вы не можете отвечать на сообщения
Вы не можете редактировать свои сообщения
Вы не можете удалять свои сообщения
Вы не можете голосовать в опросах
Вы не можете прикреплять файлы к сообщениям
Вы не можете скачивать файлы

▼ Вниз