Уважаемый Гость!
Вы можете поддержать проект и зарегистрироваться у наших партнеров - онлайн-стратегия MyLands. При регистрации в игре Вы получите код, который сможете активировать после регистрации на pirat.ca и получить 1000 дублонов.

Ваш код:
393910aa880851f3588d233e41ce0a35a9e3ebac
 
     

Хороший мальчик (Оксана Карас) [2016 г., комедия, WEB-DLRip] Original (RUS)[iTunes Russia]

Ответить на тему
 
Автор
Сообщение

Пост 22-Дек-2016 09:13

[Q] 

aleksey99

--Хороший мальчик--«Вырастешь - поймешь!»-- Производство: Россия, 2D Целлулоид, Art Pictures Studio
Год выпуска: 2016 г.
Жанр: комедия
Продолжительность: 01:35:07--Мировая премьера: 3 ноября 2016
Российская премьера: 10 ноября 2016, «WDSSPR»--Режиссер: Оксана Карас--В ролях: Семён Трескунов, Константин Хабенский, Михаил Ефремов, Александр Паль, Анастасия Богатырева, Василий Буткевич, Иева Андреевайте, Ирина Денисова, Татьяна Догилева, Ирина Пегова--Описание: Обычная, казалось бы, неделя из жизни ничем не примечательного школьника Коли Смирнова превращается в череду невероятных происшествий: Коля влюбляется в учительницу английского, кто-то поджигает школьную пристройку с новыми компьютерами, а папа Коли заявляет семье о необходимости отказа от ночного сна, из-за чего никому в доме не удается выспаться и собраться с мыслями. Вдобавок в самого Колю влюбляется дочка директора, старшеклассница Ксюша, решившая, что это именно он поджёг школу. Остаётся всего несколько дней до субботнего праздника школы, где должны встретиться все действующие лица этого водоворота событий, и теперь хорошему мальчику Коле необходимо успеть разобраться со своей личной жизнью, расследовать поджог и наладить взаимоотношения с родителями.-- --Качество видео: WEB-DLRip
Контейнер: AVI
Видео кодек: XviD
Аудио кодек: AC3
Видео: 720x320 (2.25:1), 24.000 fps, XviD build 73 ~1793 kbps avg, 0.32 bit/pixel
Аудио: 48 kHz, AC3 Dolby Digital, 3/2 (L,C,R,l,r) + LFE ch, ~384 kbps
Cубтитры: отсутствуют
Общее
Полное имя : H:\Torrent2\Horoshij.Maljchikr.2016.XviD.WEB-DLRip.avi
Формат : AVI
Формат/Информация : Audio Video Interleave
Размер файла : 1,45 Гбайт
Продолжительность : 1 ч. 35 м.
Общий поток : 2187 Кбит/сек
Программа кодирования : VirtualDubMod 1.5.10.3 | www.virtualdub-fr.org || (build 2550/release)
Библиотека кодирования : VirtualDubMod build 2550/release
Видео
Идентификатор : 0
Формат : MPEG-4 Visual
Профиль формата : Advanced [email protected]
Параметр BVOP формата : 1
Параметр QPel формата : Нет
Параметр GMC формата : Без точки перехода
Параметр матрицы формата : Выборочная
Идентификатор кодека : XVID
Идентификатор кодека/Подсказка : XviD
Продолжительность : 1 ч. 35 м.
Битрейт : 1793 Кбит/сек
Ширина : 720 пикселей
Высота : 320 пикселей
Соотношение сторон : 2,25:1
Частота кадров : 24,000 кадра/сек
Цветовое пространство : YUV
Субдискретизация насыщенности : 4:2:0
Битовая глубина : 8 бит
Тип развёртки : Прогрессивная
Метод сжатия : С потерями
Бит/(Пиксели*Кадры) : 0.324
Размер потока : 1,19 Гбайт (82%)
Библиотека кодирования : XviD 73
Аудио
Идентификатор : 1
Формат : AC-3
Формат/Информация : Audio Coding 3
Расширение режима : CM (complete main)
Параметр Endianness формата : Big
Идентификатор кодека : 2000
Продолжительность : 1 ч. 35 м.
Вид битрейта : Постоянный
Битрейт : 384 Кбит/сек
Каналы : 6 каналов
Расположение каналов : Front: L C R, Side: L R, LFE
Частота : 48,0 КГц
Частота кадров : 31,250 кадров/сек (1536 spf)
Метод сжатия : С потерями
Размер потока : 261 Мбайт (18%)
Выравнивание : Разделение по промежуткам
Продолжительность промежутка : 42 мс. (1,00 видеокадр)
Время предзагрузки промежутка : 500 мс.
Трейлер
Download / Скачать

Хотите скачать бесплатно? Зарегистрируйтесь на сайте (ссылка на регистрацию). Pirat.ca - самый быстрый торрент трекер в рунете!

Как скачивать  ·   Что такое торрент  ·   Рейтинг и ограничения

clark

Корсар

Пост 22-Дек-2016 10:27 (спустя 1 час 14 минут)

[Q] 

посмотрим спасибо Лови бочку

_________________
Последним смеётся тот, кто стреляет первым.
[Профиль]  [ЛС] 

viji

Корсар

Пост 22-Дек-2016 16:46 (спустя 6 часов)

[Q] 

О отлично, качество. А то прежде концовки не было, хотел досмотреть. Да и пересмотреть можно. Неплохое кино.
[Профиль]  [ЛС] 

ТАЛИ

Флибустьер

Пост 22-Дек-2016 22:31 (спустя 5 часов)

[Q] 

Очень странный фильм... Ни смысла, ни идеи, ни особого сюжета и не смешно ни разу, ну или раза два от силы... Хотя смотрится легко и актеры хорошие. Но просмотрела и не поняла - что это было? Наверно хотели что-то про взросление изобразить и про отцов и детей... Но как-то неубедительно и пустовато получилось.
[Профиль]  [ЛС] 

zvernight

Флибустьер

Пост 22-Дек-2016 23:06 (спустя 34 минуты)

[Q] 

вряд ли стоит ждать глубокий смысл от молодежной комедии, качественная картинка и хороший актерский состав - посмотрим Лови бочку
[Профиль]  [ЛС] 

aka_johnny

Флибустьер

Пост 23-Дек-2016 04:01 (спустя 4 часа)

[Q] 

хахахахахаххахахахахаха)))))))))))))
[Профиль]  [ЛС] 

zvernight

Флибустьер

Пост 25-Дек-2016 22:20 (спустя 2 дня 18 часов)

[Q] 

Фильм понравился Всем качать!!!
[Профиль]  [ЛС] 

Просто я

Лоцман

Пост 25-Дек-2016 23:23 (спустя 1 час 2 минуты)

[Q] 

кстати, смысл в фильме есть. Все просто.
впервые за год посмотрел новый фильм РФ и порадовался.
[Профиль]  [ЛС] 

vvvovchik

Лоцман

Пост 03-Янв-2017 00:56 (спустя 8 дней)

[Q] 

Спасибо, посмотрим.
[Профиль]  [ЛС] 

raul kurochka

Флибустьер

Пост 13-Янв-2017 01:46 (спустя 10 дней)

[Q] 

779490Очень странный фильм... Ни смысла, ни идеи, ни особого сюжета и не смешно ни разу, ну или раза два от силы... Хотя смотрится легко и актеры хорошие. Но просмотрела и не поняла - что это было? Наверно хотели что-то про взросление изобразить и про отцов и детей... Но как-то неубедительно и пустовато получилось.
Едрить-колотить! как же я люблю подобных "эстетствующих" пусто-критиков... Ни смысла, ни аргументов, ни четкого мнения. Хотя читается легко, и с пунктуацией все нормально. Бестолково правда: прочитал и не понял - что это было?! Ну может улыбнулся разок, от силы. Наверное хотели что-то вроде авторитетного мнения изобразить и подобие глубокого художественного анализа... Но как-то неубедительно и совершенно "пусто" получилось
bd
p.s. Хабенского уважаю, за несколько фильмов. Надеюсь тут он не въехал в жир, как с Ночным Позором.
Спасибо - забираю!
Лови бочку

_________________
...ЧО ТАКОЙ СЕРЬЕЗНЫЙ???
[Профиль]  [ЛС] 

andrey-34rus

Корсар

Пост 18-Янв-2017 13:52 (спустя 5 дней)

[Q] 

Разок посмотреть можно )
[Профиль]  [ЛС] 

rampage-2

Морской Волк

Пост 18-Янв-2017 19:19 (спустя 5 часов)

[Q] 

Хороший фильм, вот только комедии в нем мало, больше мелодрама. Мне понравилось
[Профиль]  [ЛС] 

Пост 21-Янв-2017 09:54 (спустя 2 дня 14 часов)

Топик был перенесен из форума Новинки (HD|DVD|BD| TV|SAT|PDTV| - Rips) в форум Российские фильмы
aleksey99
 

vasdas

Корсар

Пост 18-Сен-2017 06:05 (спустя 7 месяцев 30 дней)

[Q] 

Нормальное лёгкое кино, не напрягает. Понравилось. Спасибо!!!
[Профиль]  [ЛС] 

mb1969

Корсар

Пост 18-Сен-2017 22:44 (спустя 16 часов)

[Q] 

Лажа. Ничего достойного.
[Профиль]  [ЛС] 
Показать сообщения:    
Ответить на тему

Текущее время: Сегодня 03:37

Часовой пояс: GMT + 4



Вы не можете начинать темы
Вы не можете отвечать на сообщения
Вы не можете редактировать свои сообщения
Вы не можете удалять свои сообщения
Вы не можете голосовать в опросах
Вы не можете прикреплять файлы к сообщениям
Вы не можете скачивать файлы

▼ Вниз