Всё, что останется / Was bleibt (Ханс-Кристиан Шмид / Hans-Christian Schmid) [2012 г., драма, HDRip] VO Sub (Rus) + Original (Ger)

Ответить на тему
 
Автор
Сообщение

Пост 30-Сен-2017 09:26

[Q] 

Дядя Витя

-Всё, что останется

Was bleibt
-- Жанр: драма
Страна: Германия
Год выпуска: 2012 г.
Продолжительность: 01:24:49
Мировая премьера: 14 февраля 2012
Оригинальный аудиопоток: немецкий
Режиссёр: Ханс-Кристиан Шмид / Hans-Christian Schmid
Перевод: Любительский (одноголосый, закадровый) [viktor_2838]
Производство: Filmproduktion GmbH, ARTE LLC, Südwestrundfunk (SWR)-В ролях:
Ларс Айдингер, Эгон Мертен, Ева Мекбах, Себастьян Циммлер, Коринна Харфух, Пикко фон Грооте, Агелика Рихтер, Инес Круг, Эрнст Штёцнер, Бирге Шаде-Описание:
Хайдтман, 30-летний начинающий писатель, со студенческих лет живет в Берлине. Взяв с собой 4-летнего сына, он отправляется на выходные в родительский дом, чтобы отдохнуть в кругу семьи с отцом, матерью и братом и отвлечься от личных неурядиц. Но каждый раз посещение родителей превращается в испытание: мать Марко и Якоба Гита уже 30 лет имеет психиатрический диагноз. На этот раз Гита приготовила сюрприз: она сообщает семье, что уже 2 месяца не принимает лекарств и чувствует себя хорошо. Домочадцы, скрывавшие от нее ранее свои переживания, перестают теперь держать все проблемы в себе.
На следующий день Гита исчезает из дома...-
Контейнер: AVI
Аудио кодек: AC3
Видео кодек: XviD
Cубтитры: русские
Качество видео: HDRip
Видео: MPEG-4 Visual | 720x384 | 1874 Кbps | 25,0 fps | 0.271 bit/pixel
Аудио #1: Audio Coding 3 | 48.0 KHz | 2 ch | 192.0 Kbps
Аудио #2: Audio Coding 3 | 48.0 KHz | 6 ch | 448.0 Kbps
Формат субтитров: softsub (SRT)
Доп. информация о субтитрах: Kasablanka (внешние)
Международный Берлинский кинофестиваль (Германия), 2012 год
• Номинация на "Золотой медведь" (Ханс-Кристиан Шмид)
Национальная кинопремия Германии / "Лола" (Германия), 2012 год
• Номинация на лучшую мужскую роль второго плана (Эрнст Штёцнер)
Ассоциация германских кинокритиков (Германия), 2012 год
• Приз в категории "Лучший актер" (Ларс Айдингер, так же и за фильм "Табу - Душе не место на Земле")
• Приз за лучший оригинальный сценарий (Бернд Ланге)
• Номинация в категории "Лучший игровой фильм" (Ханс-Кристиан Шмид)
• Номинация в категории "Лучшая музыка к фильму" (The Notwist)
Международный кинофестиваль в Лас-Пальмас (Испания), 2012 год
• Номинация на Golden Lady Harimaguada (Ханс-Кристиан Шмид)
Фестиваль искусства и кино в Шверине (Германия), 2012 год
• "Летающий Вол" в категории лучший игровой фильм (Ханс-Кристиан Шмид)
Общее
Полное имя : Was.Bleibt_2012.HDRip_[pirat.ca]\Was.Bleibt_2012.HDRip.avi
Формат : AVI
Формат/Информация : Audio Video Interleave
Размер файла : 1,50 Гбайт
Продолжительность : 1 ч. 24 м.
Общий поток : 2528 Кбит/сек
Программа кодирования : VirtualDubModRus 1.5.10.2 (build 2542/release)
Библиотека кодирования : VirtualDubMod build 2542/release
Видео
Идентификатор : 0
Формат : MPEG-4 Visual
Профиль формата : Advanced [email protected]
Параметр BVOP формата : 1
Параметр QPel формата : Нет
Параметр GMC формата : Без точки перехода
Параметр матрицы формата : Default (H.263)
Режим смешивания : Сжатый битовый поток
Идентификатор кодека : XVID
Идентификатор кодека/Подсказка : XviD
Продолжительность : 1 ч. 24 м.
Битрейт : 1874 Кбит/сек
Ширина : 720 пикселей
Высота : 384 пикселя
Соотношение сторон : 1,85:1
Частота кадров : 25,000 кадров/сек
Цветовое пространство : YUV
Субдискретизация насыщенности : 4:2:0
Битовая глубина : 8 бит
Тип развёртки : Прогрессивная
Метод сжатия : С потерями
Бит/(Пиксели*Кадры) : 0.271
Размер потока : 1,11 Гбайт (74%)
Библиотека кодирования : XviD 1.2.1 (UTC 2008-12-04)
Аудио #1
Идентификатор : 1
Формат : AC-3
Формат/Информация : Audio Coding 3
Параметр Endianness формата : Big
Идентификатор кодека : 2000
Продолжительность : 1 ч. 24 м.
Вид битрейта : Постоянный
Битрейт : 192 Кбит/сек
Каналы : 2 канала
Расположение каналов : Front: L R
Частота : 48,0 КГц
Частота кадров : 31,250 кадров/сек (1536 spf)
Битовая глубина : 16 бит
Метод сжатия : С потерями
Размер потока : 116 Мбайт (8%)
Выравнивание : Разделение по промежуткам
Продолжительность промежутка : 40 мс. (1,00 видеокадр)
Время предзагрузки промежутка : 500 мс.
ServiceKind/String : Complete Main
Аудио #2
Идентификатор : 2
Формат : AC-3
Формат/Информация : Audio Coding 3
Параметр Endianness формата : Big
Идентификатор кодека : 2000
Продолжительность : 1 ч. 24 м.
Вид битрейта : Постоянный
Битрейт : 448 Кбит/сек
Каналы : 6 каналов
Расположение каналов : Front: L C R, Side: L R, LFE
Частота : 48,0 КГц
Частота кадров : 31,250 кадров/сек (1536 spf)
Битовая глубина : 16 бит
Метод сжатия : С потерями
Размер потока : 272 Мбайт (18%)
Выравнивание : Разделение по промежуткам
Продолжительность промежутка : 40 мс. (1,00 видеокадр)
Время предзагрузки промежутка : 500 мс.
ServiceKind/String : Complete Main
Download / Скачать

Хотите скачать бесплатно? Зарегистрируйтесь на сайте (ссылка на регистрацию). Pirat.ca - самый быстрый торрент трекер в рунете!

Как скачивать  ·   Что такое торрент  ·   Рейтинг и ограничения

Показать сообщения:    
Ответить на тему

Текущее время: Сегодня 08:41

Часовой пояс: GMT + 4



Вы не можете начинать темы
Вы не можете отвечать на сообщения
Вы не можете редактировать свои сообщения
Вы не можете удалять свои сообщения
Вы не можете голосовать в опросах
Вы не можете прикреплять файлы к сообщениям
Вы не можете скачивать файлы

Майнать ▼