Тетрадь смерти 1-3/ Death Note 1-3 [2006, 2008 г.г., драма, детектив, криминал, ужасы, приключения, фэнтези, Blu-Ray Rip] VO + MVO

Ответить на тему
 
Автор
Сообщение

Пост 14-Сен-2012 13:47

[Q] 

kroxaBOOM

Легенда

--Тетрадь смерти / Death Note--
Производство: Япония
Год выпуска: 2006 г.
Жанр: драма, детектив, криминал, ужасы, приключения, фэнтези
Продолжительность: 02:06:38
Мировая премьера: 17 июня 2006
Перевод: Профессиональный (одноголосый, закадровый)
Режиссер: Канэко Шусуке / Kaneko Shusuke--В ролях: Тацуя Фудживара, Кеньши Мацуява, Асака Сэто, Эрика Тода, Шигеки Хосокава, Шуньджи Фуджимура, Шидо Накамура...-- Студент старшей школы Ягами Лайт, решил освободить мир от зла с помощью сверхъестественной «Тетради Смерти», намеренно оставленной в мире людей богом смерти Рюком. Если написать настоящее имя человека в эту тетрадь, то он умрёт. Однако одного имени недостаточно: необходимо также знать и внешность жертвы. Ягами Лайт начинает массовые убийства преступников по всему миру с помощью этой тетради, преступая все грани морали и закона, за что получает прозвище «Кира», но на его пути становится таинственный детектив "L" и начинается невероятная по накалу ума и дедукции дуэль двух неординарных умов.-
Качество видео: Blu-Ray Rip
Формат видео: AVI
Видео кодек: XviD
Аудио кодек: MP3
Видео: 720x400, 1100 kbps, 23.976 fps
Аудио: 128 kbps, 2 ch, 48 khz
Cубтитры: отсутствуют
Общее
Полное имя : Тетрадь Смерти\Тетрадь смерти фильм 1.avi
Формат : AVI
Формат/Информация : Audio Video Interleave
Размер файла : 1,09 Гбайт
Продолжительность : 2 ч. 6 м.
Общий поток : 1237 Кбит/сек
Программа кодирования : VirtualDubMod 1.5.10.2 (build 2540/release)
Библиотека кодирования : VirtualDubMod build 2540/release
Видео
Идентификатор : 0
Формат : MPEG-4 Visual
Профиль формата : Advanced [email protected]
Параметр BVOP формата : 1
Параметр QPel формата : Нет
Параметр GMC формата : Без точки перехода
Параметр матрицы формата : Выборочная
Идентификатор кодека : XVID
Идентификатор кодека/Подсказка : XviD
Продолжительность : 2 ч. 6 м.
Битрейт : 1100 Кбит/сек
Ширина : 720 пикселей
Высота : 400 пикселей
Соотношение сторон : 16:9
Частота кадров : 23,976 кадра/сек
Цветовое пространство : YUV
Субдискретизация насыщенности : 4:2:0
Битовая глубина : 8 бит
Тип развёртки : Прогрессивная
Метод сжатия : С потерями
Бит/(Пиксели*Кадры) : 0.159
Размер потока : 996 Мбайт (89%)
Библиотека кодирования : XviD 1.2.1 (UTC 2008-12-04)
Аудио
Идентификатор : 1
Формат : MPEG Audio
Версия формата : Version 1
Профиль формата : Layer 3
Идентификатор кодека : 55
Идентификатор кодека/Подсказка : MP3
Продолжительность : 2 ч. 6 м.
Вид битрейта : Постоянный
Битрейт : 128 Кбит/сек
Каналы : 2 канала
Частота : 48,0 КГц
Метод сжатия : С потерями
Размер потока : 116 Мбайт (10%)
Выравнивание : Соединение по промежуткам
Продолжительность промежутка : 42 мс. (1,00 видеокадр)
Время предзагрузки промежутка : 504 мс.
Библиотека кодирования : LAME3.98r
Настройки программы : -m s -V 4 -q 2 -lowpass 17 -b 128
--
--
--Тетрадь смерти 2: Последнее имя / Death Note 2: The last name-- Производство: Япония
Год выпуска: 2006
Жанр: драма, детектив, криминал, ужасы, приключения, фэнтези
Продолжительность: 2:16:43
Мировая премьера:16 октября 2006
Перевод: Профессиональный (одноголосый, закадровый)
Режиссер: Сюскэ Канэко / Shusuke Kaneko--В ролях: Тацуя Фудживара, Кеньши Мацуява, Асака Сэто, Эрика Тода, Шигеки Хосокава, Шуньджи Фуджимура, Шидо Накамура...-- Как мы помним из первого фильма, когда в руки подростку Лайту Ягами попала в руки тетрадь смерти, он начал с ее помощью убивать всех преступников. За поиски убийцы взялся самый лучший детектив в мире по имени Эл, но его попытки закончились неудачей. Второй фильм начинается с того, что Лайт оказывается в штаб-квартире Эла, откуда тот руководит поисками убийцы. Но Лайт не признается, что был тем самым человеком, а убийства преступников во всем мире тем временем продолжают происходить. Лайт, у которого уже нет тетради, понимает, что она попала в другие руки. Вскоре он выясняет, что тетрадь находится у девушки Мисы Амане, которая тем самым хочет отомстить за несправедливость, случившуюся несколько лет тому назад. Тогда в их дом проник грабитель и убил всю ее семью, но правосудию не удалось засадить убийцу за решетку. Теперь, когда Мисе представилась возможность самой осуществить правосудие, она с удовольствием начинает убивать всех преступников на планете. Миса встречается с Лайтом и влюбляется в него, ради любви она готова на все. Но самую главную опасность для Лайта и Мисы представляет Эл. Только он со своими невероятными умственными способностями способен понять, что происходит. Поэтому Лайт и Миса должны ликвидировать Эла, чтобы он не помешал их планам очищения нашей планеты от всякой нечисти. Но Эл действует на опережение, и вскоре Миса оказывается в его руках. Чтобы спасти любимую, Лайт придумывает невероятно хитроумный план. Кто окажется сильнее в этой игре разумов: Эл или Лайт?…
Бесподобное продолжение первого фильма, вышедшего в том же 2006 году и также снятого Шусуке Канеко. Азиатская киноакадемия номинировала картину на свой приз за лучший сценарий (полностью согласен!). На кинофестивале в Йокогаме картина получила Гран-при. При бюджете в 20 миллионов долларов фильм в прокате Японии собрал 5, 2 миллиарда японских йен. Оценка 3, 5 балла.-
Качество видео: Blu-Ray Rip
Формат видео: AVI
Видео кодек: XviD
Аудио кодек: MP3
Видео: 720x400, 1093 kbps, 23.976 fps
Аудио: 128 kbps, 2 ch, 48 khz
Cубтитры: отсутствуют
Общее
Полное имя :Тетрадь Смерти\Тетрадь смерти фильм 2.avi
Формат : AVI
Формат/Информация : Audio Video Interleave
Размер файла : 1,17 Гбайт
Продолжительность : 2 ч. 16 м.
Общий поток : 1230 Кбит/сек
Программа кодирования : VirtualDubMod 1.5.10.2 (build 2540/release)
Библиотека кодирования : VirtualDub build 32507/release
Видео
Идентификатор : 0
Формат : MPEG-4 Visual
Профиль формата : Advanced [email protected]
Параметр BVOP формата : 1
Параметр QPel формата : Нет
Параметр GMC формата : Без точки перехода
Параметр матрицы формата : Выборочная
Идентификатор кодека : XVID
Идентификатор кодека/Подсказка : XviD
Продолжительность : 2 ч. 16 м.
Битрейт : 1093 Кбит/сек
Ширина : 720 пикселей
Высота : 400 пикселей
Соотношение сторон : 16:9
Частота кадров : 23,976 кадра/сек
Цветовое пространство : YUV
Субдискретизация насыщенности : 4:2:0
Битовая глубина : 8 бит
Тип развёртки : Прогрессивная
Метод сжатия : С потерями
Бит/(Пиксели*Кадры) : 0.158
Размер потока : 1,04 Гбайт (89%)
Библиотека кодирования : XviD 1.2.1 (UTC 2008-12-04)
Аудио
Идентификатор : 1
Формат : MPEG Audio
Версия формата : Version 1
Профиль формата : Layer 3
Идентификатор кодека : 55
Идентификатор кодека/Подсказка : MP3
Продолжительность : 2 ч. 16 м.
Вид битрейта : Постоянный
Битрейт : 128 Кбит/сек
Каналы : 2 канала
Частота : 48,0 КГц
Метод сжатия : С потерями
Размер потока : 125 Мбайт (10%)
Выравнивание : Соединение по промежуткам
Продолжительность промежутка : 42 мс. (1,00 видеокадр)
Время предзагрузки промежутка : 504 мс.
Библиотека кодирования : LAME3.98r
Настройки программы : -m s -V 4 -q 2 -lowpass 17 -b 128
--
--
Тетрадь смерти 3: "L" изменит мир / Death Note 3: "L": Change the World-- Производство: Япония
Год выпуска: 2008
Жанр: драма, детектив, криминал, ужасы, приключения, фэнтези
Продолжительность: 2:08:43
Мировая премьера: 31 января 2008
Перевод: Профессиональный (многоголосый, закадровый)
Режиссер: Хидео Наката / Hideo Nakata--В ролях: Кеничи Матсуяма, Сота Аояма, Сюндзи Фуджимура, Татсуя Фудживара, Маюко Фукуда, Narushi Fukuda, Сей Хирайзуми, Шигеки Хосокава, Рэндзи Исибаси, Юта Канаи-- После окончания расследования по делу Киры L сталкивается с еще одним серьезным случаем. В мире снова появляется человек, который обладает страшным оружием. На этот раз L должен обходиться без своего верного помощника Ватари и у него остается всего 23 дня, чтобы раскрыть это дело.-
Качество видео: Blu-Ray Rip
Формат видео: AVI
Видео кодек: XviD
Аудио кодек: AC-3
Видео: 720x384, 1241 kbps, 23.976 fps
Аудио: 384 kbps, 6 ch, 48 khz
Cубтитры: отсутствуют
Общее
Полное имя : Тетрадь Смерти\Тетрадь смерти фильм 3.avi
Формат : AVI
Формат/Информация : Audio Video Interleave
Размер файла : 1,47 Гбайт
Продолжительность : 2 ч. 8 м.
Общий поток : 1633 Кбит/сек
Название фильма : Тетрадь Смерти 3 / L: Change The World (2008)
Режиссёр : poleee
Программа кодирования : VirtualDubMod 1.5.10.2 (build 2540/release)
Библиотека кодирования : VirtualDubMod build 2540/release
Видео
Идентификатор : 0
Формат : MPEG-4 Visual
Профиль формата : Advanced [email protected]
Параметр BVOP формата : 1
Параметр QPel формата : Нет
Параметр GMC формата : Без точки перехода
Параметр матрицы формата : Default (MPEG)
Идентификатор кодека : XVID
Идентификатор кодека/Подсказка : XviD
Продолжительность : 2 ч. 8 м.
Битрейт : 1241 Кбит/сек
Ширина : 720 пикселей
Высота : 384 пикселя
Соотношение сторон : 1,85:1
Частота кадров : 23,976 кадра/сек
Цветовое пространство : YUV
Субдискретизация насыщенности : 4:2:0
Битовая глубина : 8 бит
Тип развёртки : Прогрессивная
Метод сжатия : С потерями
Бит/(Пиксели*Кадры) : 0.187
Размер потока : 1,12 Гбайт (76%)
Библиотека кодирования : XviD 1.2.1 (UTC 2008-12-04)
Аудио
Идентификатор : 1
Формат : AC-3
Формат/Информация : Audio Coding 3
Расширение режима : CM (complete main)
Параметр Endianness формата : Big
Идентификатор кодека : 2000
Продолжительность : 2 ч. 8 м.
Вид битрейта : Постоянный
Битрейт : 384 Кбит/сек
Каналы : 6 каналов
Расположение каналов : Front: L C R, Side: L R, LFE
Частота : 48,0 КГц
Битовая глубина : 16 бит
Метод сжатия : С потерями
Размер потока : 353 Мбайт (23%)
Выравнивание : Разделение по промежуткам
Продолжительность промежутка : 42 мс. (1,00 видеокадр)
Время предзагрузки промежутка : 500 мс.
--
Обложки будут некорректно отображаться если у вас не отключена реклама (должно быть 3 в ряд)
Download / Скачать

Хотите скачать бесплатно? Зарегистрируйтесь на сайте (ссылка на регистрацию). Pirat.ca - самый быстрый торрент трекер в рунете!

Как скачивать  ·   Что такое торрент  ·   Рейтинг и ограничения



Последний раз редактировалось: kroxaBOOM (2012-09-17 01:37), всего редактировалось 13 раз(а)

Пост 14-Сен-2012 16:06 (спустя 2 часа 18 минут)

Топик был перенесен из форума Азиатское кино (Трюм) в форум Японское кино

erchine
 

Klex

Морской Волк

Пост 29-Янв-2013 17:27 (спустя 4 месяца 15 дней)

[Q] 

Ну и кто-нибудь смотрел?
[Профиль]  [ЛС] 

Onixsan

Лоцман

Пост 29-Мар-2013 10:53 (спустя 1 месяц 30 дней)

[Q] 

Простите, а раздача еще будет на эти фильмы? anime43
[Профиль]  [ЛС] 

KoNiaL_KCC

Пост 24-Фев-2014 02:14 (спустя 10 месяцев 25 дней)

[Q] 

в фильме только 3 серии. качество видео 5. На любителя очень понравилось Раздающему респект!

_________________
всё как и в ... обидел модератора, получил лычку БАН. обидно за интеллект некоторых ....
[Профиль]  [ЛС] 

DarkSaimon

Лоцман

Пост 16-Апр-2015 07:06 (спустя 1 год 1 месяц)

[Q] 

Самое лучшие воплощение аниме в кино,шикарная подборка актёров,отлично поставлено и сыграно,не говоря про то что только Тацуя мог сыграть эту роль. anime8
[Профиль]  [ЛС] 

янка-сан

Гроза морей

Пост 18-Дек-2015 19:18 (спустя 8 месяцев 2 дня)

[Q] 

Лови бочку Автору респект!!! спасибо
[Профиль]  [ЛС] 

andrey-34rus

Корсар

Пост 17-Янв-2017 21:00 (спустя 1 год)

[Q] 

Оригинальное кино. Мне понравилось.
[Профиль]  [ЛС] 

lexaspirit

Пост 17-Окт-2017 20:36 (спустя 8 месяцев 30 дней)

[Q] 

Посмотрел фильм 2017 года и решил пересмотреть это фильмы. На мой взгляд в Японии сняли лучше

_________________
-------------------- ----------------------
[Профиль]  [ЛС] 
Показать сообщения:    
Ответить на тему

Текущее время: Сегодня 13:36

Часовой пояс: GMT + 4



Вы не можете начинать темы
Вы не можете отвечать на сообщения
Вы не можете редактировать свои сообщения
Вы не можете удалять свои сообщения
Вы не можете голосовать в опросах
Вы не можете прикреплять файлы к сообщениям
Вы не можете скачивать файлы

Майнать ▼