(Instrumental) Сергей Маврин - Белое Солнце - 2017 [FLAC, image +.cue, lossless]

Ответить на тему
 
Автор
Сообщение

Пост 11-Июл-2017 12:44

[Q] 

sergej644

-Сергей Маврин - Белое Солнце--
Год издания: 2017
Страна: Russia
Жанр: Instrumental
Продолжительность: 00:52:06-Лейбл издания: © С. Маврин Records
Страна-выпуска диска: Russia
Номер по каталогу: n/a-Формат: FLAC
Битрейт аудио: Lossless
Тип рипа: image +.cue
Наличие сканов в содержимом раздачи: да
-

01. Аврора (0:53)
02. Белый ветер (4:30)
03. Искушения (5:09)
04. Тихий океан (5:46)
05. М4 (4:32)
06. Танец дождя (5:09)
07. Куда уходят сны (5:05)
08. Джими (4:49)
09. Вечное возвращение (4:24)
10. Белое Солнце (5:01)
11. Bonus track: Любовь и боль (6:48)
-
Код:
Exact Audio Copy V1.3 from 2. September 2016
Отчёт EAC об извлечении, выполненном 14. июня 2017, 21:19
Сергей Маврин / Белое Солнце
Дисковод: HL-DT-STDVDRAM GH22NS40   Adapter: 1  ID: 1
Режим чтения                 : Достоверность
Использование точного потока : Да
Отключение кэша аудио        : Да
Использование указателей C2  : Нет
Коррекция смещения при чтении                     : 667
Способность читать области Lead-in и Lead-out     : Нет
Заполнение пропущенных сэмплов тишиной            : Да
Удаление блоков с тишиной в начале и конце        : Нет
При вычислениях CRC использовались нулевые сэмплы : Да
Интерфейс                                         : Встроенный Win32-интерфейс для Win NT/2000
Выходной формат          : Пользовательский кодировщик
Выбранный битрейт        : 128 kBit/s
Качество                 : Высокий
Добавление ID3-тега      : Нет
Утилита сжатия           : C:\Program Files\Exact Audio Copy\Flac\flac.exe
Дополнительные параметры : -V -8 -T "Date=%year%" -T "Genre=%genre%" %source%
TOC извлечённого CD
     Трек |   Старт  | Длительность | Начальный сектор | Конечный сектор
    ---------------------------------------------------------------------
       1  |  0:00.00 |    0:53.23   |           0      |       3997
       2  |  0:53.23 |    4:30.32   |        3998      |      24279
       3  |  5:23.55 |    5:08.45   |       24280      |      47424
       4  | 10:32.25 |    5:46.03   |       47425      |      73377
       5  | 16:18.28 |    4:32.15   |       73378      |      93792
       6  | 20:50.43 |    5:09.30   |       93793      |     116997
       7  | 25:59.73 |    5:04.63   |      116998      |     139860
       8  | 31:04.61 |    4:49.10   |      139861      |     161545
       9  | 35:53.71 |    4:23.50   |      161546      |     181320
      10  | 40:17.46 |    5:00.64   |      181321      |     203884
      11  | 45:18.35 |    6:47.48   |      203885      |     234457
Характеристики диапазона извлечения и сообщения об ошибках
Выбранный диапазон
     Имя файла E:\Рип Маврина\Сергей Маврин - Белое Солнце.wav
     Пиковый уровень 100.0 %
     Скорость извлечения 1.9 X
     Качество диапазона 99.9 %
     CRC теста 51C0EE14
     CRC копии 51C0EE14
     Копирование... OK
Ошибок не произошло
Конец отчёта
Код:
REM DATE 2017
REM DISCID 880C360B
REM COMMENT "ExactAudioCopy v1.3"
PERFORMER "СЕРГЕЙ МАВРИН"
TITLE "Белое Солнце"
FILE "CD.flac" WAVE
  TRACK 01 AUDIO
    TITLE "Аврора"
    INDEX 01 00:00:00
  TRACK 02 AUDIO
    TITLE "Белый ветер"
    INDEX 01 00:53:23
  TRACK 03 AUDIO
    TITLE "Искушения"
    INDEX 01 05:23:55
  TRACK 04 AUDIO
    TITLE "Тихий океан"
    INDEX 01 10:32:25
  TRACK 05 AUDIO
    TITLE "М4"
    INDEX 01 16:18:28
  TRACK 06 AUDIO
    TITLE "Танец дождя"
    INDEX 01 20:50:43
  TRACK 07 AUDIO
    TITLE "Куда уходят сны"
    INDEX 01 25:59:73
  TRACK 08 AUDIO
    TITLE "Джими"
    INDEX 01 31:04:61
  TRACK 09 AUDIO
    TITLE "Вечное возвращение"
    INDEX 01 35:53:71
  TRACK 10 AUDIO
    TITLE "Белое Солнце"
    INDEX 01 40:17:46
  TRACK 11 AUDIO
    TITLE "Bonus track: Любовь и боль"
    INDEX 01 45:18:35
--
Download / Скачать

Хотите скачать бесплатно? Зарегистрируйтесь на сайте (ссылка на регистрацию). Pirat.ca - самый быстрый торрент трекер в рунете!

Как скачивать  ·   Что такое торрент  ·   Рейтинг и ограничения

ku_vol

Морской Волк

Пост 05-Авг-2017 18:00 (спустя 25 дней)

[Q] 

Хорошая музыка фоном для разных занятий и под пивко! Спасибо!!!
[Профиль]  [ЛС] 

Securityuser

Гроза морей

Пост 20-Окт-2017 07:32 (спустя 2 месяца 14 дней)

[Q] 

Автору, спасибо за раздачу!
[Профиль]  [ЛС] 
Показать сообщения:    
Ответить на тему

Текущее время: Сегодня 13:53

Часовой пояс: GMT + 4



Вы не можете начинать темы
Вы не можете отвечать на сообщения
Вы не можете редактировать свои сообщения
Вы не можете удалять свои сообщения
Вы не можете голосовать в опросах
Вы не можете прикреплять файлы к сообщениям
Вы не можете скачивать файлы

Майнать ▼