Король Лев / The Lion King (Роджер Аллерс, Роб Минкофф / Roger Allers, Rob Minkoff) [1994 г., мультфильм, мюзикл, драма, приключения, семейный, BDRip-AVC] 2Dub + DVO + 8AVO + VO + original (Eng) + Sub (Rus,Ukr,Eng)

Ответить на тему
 
Автор
Сообщение

Пост 21-Окт-2017 20:43

[Q] 

Evgesha 76

Корсар

Король Лев / The Lion King
Год выпуска: 1994
Производство: США. Walt Disney Feature Animation, Walt Disney Pictures
Жанр: мультфильм, мюзикл, драма, приключения, семейный
Продолжительность: 01:28:23
Перевод 1: Профессиональный (полное дублирование) BD EUR
Перевод 2: Профессиональный (двухголосый, закадровый) Петр Гланц и Татьяна Казакова
Перевод 3: Авторский (одноголосый, закадровый) Андрей Гаврилов / поздний (~2008-09)
Перевод 4: Авторский (одноголосый, закадровый) Андрей Гаврилов / ранний (~1994-96)
Перевод 5: Авторский (одноголосый, закадровый) Юрий Живов
Перевод 6: Авторский (одноголосый, закадровый) Владимир Яковлев
Перевод 7: Авторский (одноголосый, закадровый) Максим Латышев (Егор Хрусталёв)
Перевод 8: Авторский (одноголосый, закадровый) Сергей Визгунов [VHS]
Перевод 9: Авторский (одноголосый, закадровый) Сергей Кузнецов [VHS]
Перевод 10: Авторский (одноголосый, закадровый) Александр Кашкин (Первомайский) [VHS]
Перевод 11: Одноголосый (закадровый) неизвестный переводчик [VHS]
Перевод 12: Профессиональный (полное дублирование) BD EUR (UKR)
Оригинальный аудиопоток: английский
Субтитры: русские, украинские, английские
Режиссер: Роджер Аллерс, Роб Минкофф / Roger Allers, Rob Minkoff
В ролях: Джонатан Тейлор Томас, Мэттью Бродерик, Джеймс Эрл Джонс, Джереми Айронс, Мойра Келли, Никета Калам, Эрни Сабелла, Натан Лейн, Роберт Гийом, Роуэн Эткинсон... .
Описание: У величественного Короля-Льва Муфасы рождается наследник по имени Симба. Уже в детстве любознательный малыш становится жертвой интриг своего завистливого дяди Шрама, мечтающего о власти.
Симба познаёт горе утраты, предательство и изгнание, но в конце концов обретает верных друзей и находит любимую. Закалённый испытаниями, он в нелёгкой борьбе отвоёвывает своё законное место в «Круге жизни», осознав, что значит быть настоящим Королём.
IMDB , КиноПоиск
Качество видео: BDRip-AVC
Контейнер: MKV
Видео кодек: MPEG4-AVC
Аудио кодек: AC3
Видео: 1152x648 (16:9), 23.976 fps, H.264 ~2123 kbps avg, 0.119 bit/pixel
Аудио #1: AC3, 5.1, 48 kHz, ~448 Кбит/с-BD EUR
Аудио #2: AC3, 5.1, 48 kHz, ~448 Кбит/с-Петр Гланц и Татьяна Казакова
Аудио #3: AC3, 5.1, 48 kHz, ~448 Кбит/с-Андрей Гаврилов / поздний
Аудио #4: AC3, 5.1, 48 kHz, ~448 Кбит/с-Андрей Гаврилов / ранний
Аудио #5: AC3, 5.1, 48 kHz, ~448 Кбит/с-Юрий Живов
Аудио #6: AC3, 5.1, 48 kHz, ~448 Кбит/с-Владимир Яковлев
Аудио #7: AC3, 5.1, 48 kHz, ~448 Кбит/с-Максим Латышев (Егор Хрусталёв)
Аудио #8: AC3, 1.0, 48 kHz, ~192 Кбит/с-Сергей Визгунов
Аудио #9: AC3, 1.0, 48 kHz, ~192 Кбит/с-Сергей Кузнецов
Аудио #10: AC3, 1.0, 48 kHz, ~192 Кбит/с-Александр Кашкин
Аудио #11: AC3, 1.0, 48 kHz, ~192 Кбит/с-неизвестный переводчик
Аудио #12: AC3, 5.1, 48 kHz, ~448 Кбит/с-BD EUR (UKR)
Аудио #13: AC3, 5.1, 48 kHz, ~448 Кбит/с-Original
Формат субтитров: UTF-8
Доп. информация о субтитрах: русские (полные), украинские (полные), английские (полные)
Навигация по главам: Есть
Оскар, 1995 год
Победитель (2):
Лучшая песня — «Can You Feel the Love Tonight»
Лучший оригинальный саундтрек
Номинации (2):
Лучшая песня — «Circle of Life»
Лучшая песня — «Hakuna Matata»
Золотой глобус, 1995 год
Победитель (3):
Лучший фильм (комедия или мюзикл)
Лучшая песня — «Can You Feel the Love Tonight»
Лучший саундтрек
Номинации (1):
Лучшая песня — «The Circle of Life»
Общее
Уникальный идентификатор : 176915488226196791104901567022804658167 (0x8518AF0309276ACDB0568BC92C7A67F7)
Полное имя :The.Lion.King.1994.BDRip-AVC.11xRus.Ukr.Eng.-HQCLUB.mkv
Формат : Matroska
Версия формата : Version 2
Размер файла : 4,36 Гбайт
Продолжительность : 1 ч. 28 м.
Общий поток : 7064 Кбит/сек
Название фильма : Король Лев / The Lion King (1994) BDRip-AVC by Elheym [HQCLUB]
Дата кодирования : UTC 2016-01-22 10:30:20
Программа кодирования : mkvmerge v5.2.0 ('I can't explain') built on Dec 18 2011 18:12:03
Библиотека кодирования : libebml v1.2.3 + libmatroska v1.3.0
Обложка : Yes
Attachments : cover.jpg
Видео
Идентификатор : 1
Формат : AVC
Формат/Информация : Advanced Video Codec
Профиль формата : [email protected]
Параметр CABAC формата : Да
Параметр RefFrames формата : 10 кадров
Идентификатор кодека : V_MPEG4/ISO/AVC
Продолжительность : 1 ч. 28 м.
Битрейт : 2123 Кбит/сек
Ширина : 1152 пикселя
Высота : 648 пикселей
Соотношение сторон : 16:9
Режим частоты кадров : Постоянный
Частота кадров : 23,976 (24000/1001) кадра/сек
Цветовое пространство : YUV
Субдискретизация насыщенности : 4:2:0
Битовая глубина : 8 бит
Тип развёртки : Прогрессивная
Бит/(Пиксели*Кадры) : 0.119
Размер потока : 1,31 Гбайт (30%)
Заголовок : Король Лев / The Lion King (1994) BDRip-AVC by Elheym [HQCLUB]
Библиотека кодирования : x264 core 148 r2638+53 bb29004 t_mod_Custom [[email protected] X86_64]
Настройки программы : cabac=1 / ref=10 / deblock=1:-1:-1 / analyse=0x3:0x113 / me=umh / subme=11 / psy=1 / fade_compensate=0.00 / psy_rd=0.55:0.00 / mixed_ref=1 / me_range=48 / chroma_me=1 / trellis=2 / 8x8dct=1 / cqm=0 / deadzone=21,11 / fast_pskip=0 / chroma_qp_offset=-2 / threads=6 / lookahead_threads=2 / sliced_threads=0 / nr=0 / decimate=0 / interlaced=0 / bluray_compat=0 / constrained_intra=0 / fgo=0 / bframes=13 / b_pyramid=2 / b_adapt=2 / b_bias=0 / direct=3 / weightb=1 / open_gop=0 / weightp=2 / keyint=240 / keyint_min=23 / scenecut=40 / intra_refresh=0 / rc_lookahead=60 / rc=crf / mbtree=1 / crf=17.3000 / qcomp=0.70 / qpmin=0:0:0 / qpmax=69:69:69 / qpstep=4 / vbv_maxrate=20000 / vbv_bufsize=25000 / crf_max=0.0 / nal_hrd=none / filler=0 / ip_ratio=1.40 / aq=3:0.50 / aq-sensitivity=10.00 / aq-factor=1.00:1.00:1.00 / aq2=0 / aq3=4:[0.50:0.50]:[0.50:0.50]:[0.50:0.50]:[0.50:0.50] / aq3-sensitivity=15.00 / aq3-factor=[1.00:1.00]:[1.00:1.00]:[1.00:1.00] / aq3-boundary=192:64:24 / zones=60,1250,b=1.46/1251,1451,b=1.96/1452,3036,b=1.36/3419,3811,b=1.56/4472,4941,b=1.92/8771,9639,b=1.48/12057,13476,b=1.32/18392,18867,b=1.36/27393,28420,b=1.62/33105,33955,b=1.54/34971,35657,b=1.57/42676,43001,b=1.41/94324,97370,b=1.49/101391,104689,b=1.62/108890,116103,b=1.35/119973,126965,b=0.36
Язык : English
Default : Да
Forced : Нет
Аудио #1
Идентификатор : 2
Формат : AC-3
Формат/Информация : Audio Coding 3
Параметр Endianness формата : Big
Идентификатор кодека : A_AC3
Продолжительность : 1 ч. 28 м.
Вид битрейта : Постоянный
Битрейт : 448 Кбит/сек
Каналы : 6 каналов
Расположение каналов : Front: L C R, Side: L R, LFE
Частота : 48,0 КГц
Частота кадров : 31,250 кадров/сек (1536 SPF)
Битовая глубина : 16 бит
Метод сжатия : С потерями
Размер потока : 283 Мбайт (6%)
Заголовок : АС3 5.1 @ 448 kbps - Dub, BD EUR
Язык : Russian
ServiceKind/String : Complete Main
Default : Нет
Forced : Нет
Аудио #2
Идентификатор : 3
Формат : AC-3
Формат/Информация : Audio Coding 3
Параметр Endianness формата : Big
Идентификатор кодека : A_AC3
Продолжительность : 1 ч. 28 м.
Вид битрейта : Постоянный
Битрейт : 448 Кбит/сек
Каналы : 6 каналов
Расположение каналов : Front: L C R, Side: L R, LFE
Частота : 48,0 КГц
Частота кадров : 31,250 кадров/сек (1536 SPF)
Битовая глубина : 16 бит
Метод сжатия : С потерями
Размер потока : 283 Мбайт (6%)
Заголовок : АС3 5.1 @ 448 kbps - DVO, Glanc & Kazakova
Язык : Russian
ServiceKind/String : Complete Main
Default : Нет
Forced : Нет
Аудио #3
Идентификатор : 4
Формат : AC-3
Формат/Информация : Audio Coding 3
Параметр Endianness формата : Big
Идентификатор кодека : A_AC3
Продолжительность : 1 ч. 28 м.
Вид битрейта : Постоянный
Битрейт : 448 Кбит/сек
Каналы : 6 каналов
Расположение каналов : Front: L C R, Side: L R, LFE
Частота : 48,0 КГц
Частота кадров : 31,250 кадров/сек (1536 SPF)
Битовая глубина : 16 бит
Метод сжатия : С потерями
Размер потока : 283 Мбайт (6%)
Заголовок : АС3 5.1 @ 448 kbps - AVO, Gavrilov (~2008-09)
Язык : Russian
ServiceKind/String : Complete Main
Default : Нет
Forced : Нет
Аудио #4
Идентификатор : 5
Формат : AC-3
Формат/Информация : Audio Coding 3
Параметр Endianness формата : Big
Идентификатор кодека : A_AC3
Продолжительность : 1 ч. 28 м.
Вид битрейта : Постоянный
Битрейт : 448 Кбит/сек
Каналы : 6 каналов
Расположение каналов : Front: L C R, Side: L R, LFE
Частота : 48,0 КГц
Частота кадров : 31,250 кадров/сек (1536 SPF)
Битовая глубина : 16 бит
Метод сжатия : С потерями
Размер потока : 283 Мбайт (6%)
Заголовок : АС3 5.1 @ 448 kbps - AVO, Gavrilov (~1994-96)
Язык : Russian
ServiceKind/String : Complete Main
Default : Нет
Forced : Нет
Аудио #5
Идентификатор : 6
Формат : AC-3
Формат/Информация : Audio Coding 3
Параметр Endianness формата : Big
Идентификатор кодека : A_AC3
Продолжительность : 1 ч. 28 м.
Вид битрейта : Постоянный
Битрейт : 448 Кбит/сек
Каналы : 6 каналов
Расположение каналов : Front: L C R, Side: L R, LFE
Частота : 48,0 КГц
Частота кадров : 31,250 кадров/сек (1536 SPF)
Битовая глубина : 16 бит
Метод сжатия : С потерями
Размер потока : 283 Мбайт (6%)
Заголовок : АС3 5.1 @ 448 kbps - AVO, Jivov
Язык : Russian
ServiceKind/String : Complete Main
Default : Нет
Forced : Нет
Аудио #6
Идентификатор : 7
Формат : AC-3
Формат/Информация : Audio Coding 3
Параметр Endianness формата : Big
Идентификатор кодека : A_AC3
Продолжительность : 1 ч. 28 м.
Вид битрейта : Постоянный
Битрейт : 448 Кбит/сек
Каналы : 6 каналов
Расположение каналов : Front: L C R, Side: L R, LFE
Частота : 48,0 КГц
Частота кадров : 31,250 кадров/сек (1536 SPF)
Битовая глубина : 16 бит
Метод сжатия : С потерями
Размер потока : 283 Мбайт (6%)
Заголовок : АС3 5.1 @ 448 kbps - AVO, Jakovlev
Язык : Russian
ServiceKind/String : Complete Main
Default : Нет
Forced : Нет
Аудио #7
Идентификатор : 8
Формат : AC-3
Формат/Информация : Audio Coding 3
Параметр Endianness формата : Big
Идентификатор кодека : A_AC3
Продолжительность : 1 ч. 28 м.
Вид битрейта : Постоянный
Битрейт : 448 Кбит/сек
Каналы : 6 каналов
Расположение каналов : Front: L C R, Side: L R, LFE
Частота : 48,0 КГц
Частота кадров : 31,250 кадров/сек (1536 SPF)
Битовая глубина : 16 бит
Метод сжатия : С потерями
Размер потока : 283 Мбайт (6%)
Заголовок : АС3 5.1 @ 448 kbps - AVO, Latyshev
Язык : Russian
ServiceKind/String : Complete Main
Default : Нет
Forced : Нет
Аудио #8
Идентификатор : 9
Формат : AC-3
Формат/Информация : Audio Coding 3
Параметр Endianness формата : Big
Идентификатор кодека : A_AC3
Продолжительность : 1 ч. 28 м.
Вид битрейта : Постоянный
Битрейт : 192 Кбит/сек
Каналы : 1 канал
Расположение каналов : Front: C
Частота : 48,0 КГц
Частота кадров : 31,250 кадров/сек (1536 SPF)
Битовая глубина : 16 бит
Метод сжатия : С потерями
Размер потока : 121 Мбайт (3%)
Заголовок : АС3 1.0 @ 192 kbps - AVO, Vizgunov [VHS]
Язык : Russian
ServiceKind/String : Complete Main
Default : Нет
Forced : Нет
Аудио #9
Идентификатор : 10
Формат : AC-3
Формат/Информация : Audio Coding 3
Параметр Endianness формата : Big
Идентификатор кодека : A_AC3
Продолжительность : 1 ч. 28 м.
Вид битрейта : Постоянный
Битрейт : 192 Кбит/сек
Каналы : 1 канал
Расположение каналов : Front: C
Частота : 48,0 КГц
Частота кадров : 31,250 кадров/сек (1536 SPF)
Битовая глубина : 16 бит
Метод сжатия : С потерями
Размер потока : 121 Мбайт (3%)
Заголовок : АС3 1.0 @ 192 kbps - AVO, Kuznecov [VHS]
Язык : Russian
ServiceKind/String : Complete Main
Default : Нет
Forced : Нет
Аудио #10
Идентификатор : 11
Формат : AC-3
Формат/Информация : Audio Coding 3
Параметр Endianness формата : Big
Идентификатор кодека : A_AC3
Продолжительность : 1 ч. 28 м.
Вид битрейта : Постоянный
Битрейт : 192 Кбит/сек
Каналы : 1 канал
Расположение каналов : Front: C
Частота : 48,0 КГц
Частота кадров : 31,250 кадров/сек (1536 SPF)
Битовая глубина : 16 бит
Метод сжатия : С потерями
Размер потока : 121 Мбайт (3%)
Заголовок : АС3 1.0 @ 192 kbps - AVO, Kashkin [VHS]
Язык : Russian
ServiceKind/String : Complete Main
Default : Нет
Forced : Нет
Аудио #11
Идентификатор : 12
Формат : AC-3
Формат/Информация : Audio Coding 3
Параметр Endianness формата : Big
Идентификатор кодека : A_AC3
Продолжительность : 1 ч. 28 м.
Вид битрейта : Постоянный
Битрейт : 192 Кбит/сек
Каналы : 1 канал
Расположение каналов : Front: C
Частота : 48,0 КГц
Частота кадров : 31,250 кадров/сек (1536 SPF)
Битовая глубина : 16 бит
Метод сжатия : С потерями
Размер потока : 121 Мбайт (3%)
Заголовок : АС3 1.0 @ 192 kbps - VO, Unknown [VHS]
Язык : Russian
ServiceKind/String : Complete Main
Default : Нет
Forced : Нет
Аудио #12
Идентификатор : 13
Формат : AC-3
Формат/Информация : Audio Coding 3
Параметр Endianness формата : Big
Идентификатор кодека : A_AC3
Продолжительность : 1 ч. 28 м.
Вид битрейта : Постоянный
Битрейт : 448 Кбит/сек
Каналы : 6 каналов
Расположение каналов : Front: L C R, Side: L R, LFE
Частота : 48,0 КГц
Частота кадров : 31,250 кадров/сек (1536 SPF)
Битовая глубина : 16 бит
Метод сжатия : С потерями
Размер потока : 283 Мбайт (6%)
Заголовок : АС3 5.1 @ 448 kbps - Dub, BD EUR
Язык : Ukrainian
ServiceKind/String : Complete Main
Default : Нет
Forced : Нет
Аудио #13
Идентификатор : 14
Формат : AC-3
Формат/Информация : Audio Coding 3
Параметр Endianness формата : Big
Идентификатор кодека : A_AC3
Продолжительность : 1 ч. 28 м.
Вид битрейта : Постоянный
Битрейт : 448 Кбит/сек
Каналы : 6 каналов
Расположение каналов : Front: L C R, Side: L R, LFE
Частота : 48,0 КГц
Частота кадров : 31,250 кадров/сек (1536 SPF)
Битовая глубина : 16 бит
Метод сжатия : С потерями
Размер потока : 283 Мбайт (6%)
Заголовок : АС3 5.1 @ 448 kbps - Original
Язык : English
ServiceKind/String : Complete Main
Default : Нет
Forced : Нет
Текст #1
Идентификатор : 15
Формат : UTF-8
Идентификатор кодека : S_TEXT/UTF8
Идентификатор кодека/Информация : UTF-8 Plain Text
Заголовок : Full
Язык : Russian
Default : Нет
Forced : Нет
Текст #2
Идентификатор : 16
Формат : UTF-8
Идентификатор кодека : S_TEXT/UTF8
Идентификатор кодека/Информация : UTF-8 Plain Text
Заголовок : Full
Язык : Ukrainian
Default : Нет
Forced : Нет
Текст #3
Идентификатор : 17
Формат : UTF-8
Идентификатор кодека : S_TEXT/UTF8
Идентификатор кодека/Информация : UTF-8 Plain Text
Заголовок : Full
Язык : English
Default : Нет
Forced : Нет
Меню
00:00:00.000 : :Chapter 01
00:04:40.071 : :Chapter 02
00:08:10.405 : :Chapter 03
00:11:28.979 : :Chapter 04
00:14:09.557 : :Chapter 05
00:17:51.028 : :Chapter 06
00:22:54.748 : :Chapter 07
00:25:36.116 : :Chapter 08
00:30:24.196 : :Chapter 09
00:35:52.150 : :Chapter 10
00:40:14.077 : :Chapter 11
00:41:14.429 : :Chapter 12
00:44:16.945 : :Chapter 13
00:48:20.563 : :Chapter 14
00:50:07.210 : :Chapter 15
00:53:14.773 : :Chapter 16
00:57:50.842 : :Chapter 17
01:00:56.568 : :Chapter 18
01:02:32.331 : :Chapter 19
01:08:49.625 : :Chapter 20
01:12:41.023 : :Chapter 21
01:16:42.305 : :Chapter 22
01:20:45.131 : :Chapter 23
01:23:23.872 : :Chapter 24
01:28:23.296 : :Chapter 25
Download / Скачать

Хотите скачать бесплатно? Зарегистрируйтесь на сайте (ссылка на регистрацию). Pirat.ca - самый быстрый торрент трекер в рунете!

Как скачивать  ·   Что такое торрент  ·   Рейтинг и ограничения

pacco

Корсар

Пост 22-Окт-2017 08:43 (спустя 12 часов)

[Q] 

спасибо!!!!!!!!!!!!!!!!!!!
[Профиль]  [ЛС] 
Показать сообщения:    
Ответить на тему

Текущее время: Сегодня 09:55

Часовой пояс: GMT + 4



Вы не можете начинать темы
Вы не можете отвечать на сообщения
Вы не можете редактировать свои сообщения
Вы не можете удалять свои сообщения
Вы не можете голосовать в опросах
Вы не можете прикреплять файлы к сообщениям
Вы не можете скачивать файлы

Майнать ▼