Уважаемый Гость!
Вы можете поддержать проект и зарегистрироваться у наших партнеров - онлайн-стратегия MyLands. При регистрации в игре Вы получите код, который сможете активировать после регистрации на pirat.ca и получить 1000 дублонов.

Ваш код:
8f88e413a58d2c09c9def222c74daf3c0cf1d183
 
     

Вурдалаки (Сергей Гинзбург) [2017 г., триллер, фэнтези, BDRip]

Ответить на тему
 
Автор
Сообщение

Пост 12-Окт-2017 20:07

[Q] 

dimas1000

Морской Волк

-Вурдалаки«Для любви смерти нет…»-- Страна: Россия
Жанр: триллер, фэнтези
Год выпуска: 2017
Продолжительность: 01:21:54
Перевод: Не требуется
Субтитры: нет
Оригинальная аудиодорожка: русский
Режиссёр: Сергей Гинзбург
В ролях: Михаил Пореченков, Константин Крюков, Аглая Шиловская, Андрей Руденский, Михаил Жигалов, Игорь Хрипунов, Анатолий Гущин, Константин Милованов, Анна Арланова, Юлия Ауг-Описание:
Россия, 18 век. На краю Руси, в Карпатских горах, стоит Спасский монастырь, куда был сослан духовник императрицы Елизаветы монах Лавр. Какие тайны он унес с собой из столичного Петербурга, никто не ведал. Да и край, в который он был сослан, издревле считался неспокойным, о нем слагали легенды и рассказывали их только шепотом. Говорили мол, что в тех краях живет нечистая сила, оставшаяся там еще со времен набегов турецких... Спустя годы за Лавром из Петербурга прибывает Андрей, крестник самой императрицы Елизаветы. В Карпатах Андрей сталкивается со странным, пугающим и необычным, что не в состоянии объяснить его рациональный разум. А еще он встречает настоящую любовь, ради которой вступает в схватку со сверхъестественным злом.
-Качество видео: BDRip
Формат: AVI
Видео кодек: XviD
Аудио кодек: AC3
Видео: 720x304 (2.37:1), 23,976 fps, XviD build 65 ~2082 kbps avg, 0.40 bit/pixel
Аудио: 48 kHz, AC3 Dolby Digital, 3/2 (L,C,R,l,r) + LFE ch, ~448 kbps avg
Cубтитры: отсутствуют
Общее
Полное имя : D:\Vurdalaki.2017.RUS.BDRip.XviD.AC3.-HQCLUB.avi
Формат : AVI
Формат/Информация : Audio Video Interleave
Размер файла : 1,37 Гбайт
Продолжительность : 1 ч. 21 м.
Общий поток : 2389 Кбит/сек
Программа кодирования : VirtualDubMod 1.5.10.2 (build 2540/release)
Библиотека кодирования : VirtualDubMod build 2540/release
Видео
Идентификатор : 0
Формат : MPEG-4 Visual
Профиль формата : Advanced [email protected]
Параметр BVOP формата : 2
Параметр QPel формата : Нет
Параметр GMC формата : Без точки перехода
Параметр матрицы формата : Default (MPEG)
Идентификатор кодека : XVID
Идентификатор кодека/Подсказка : XviD
Продолжительность : 1 ч. 21 м.
Битрейт : 2082 Кбит/сек
Ширина : 720 пикселей
Высота : 304 пикселя
Соотношение сторон : 2,35:1
Частота кадров : 23,976 (24000/1001) кадра/сек
Цветовое пространство : YUV
Субдискретизация насыщенности : 4:2:0
Битовая глубина : 8 бит
Тип развёртки : Прогрессивная
Метод сжатия : С потерями
Бит/(Пиксели*Кадры) : 0.368
Размер потока : 1,11 Гбайт (81%)
Библиотека кодирования : XviD 1.2.1 (UTC 2008-12-04)
Аудио
Идентификатор : 1
Формат : AC-3
Формат/Информация : Audio Coding 3
Расширение режима : CM (complete main)
Параметр Endianness формата : Big
Идентификатор кодека : 2000
Продолжительность : 1 ч. 21 м.
Вид битрейта : Постоянный
Битрейт : 448 Кбит/сек
Каналы : 6 каналов
Расположение каналов : Front: L C R, Side: L R, LFE
Частота : 48,0 КГц
Частота кадров : 31,250 кадров/сек (1536 spf)
Битовая глубина : 16 бит
Метод сжатия : С потерями
Размер потока : 262 Мбайт (19%)
Выравнивание : Разделение по промежуткам
Продолжительность промежутка : 42 мс. (1,00 видеокадр)
Время предзагрузки промежутка : 500 мс.
Download / Скачать

Хотите скачать бесплатно? Зарегистрируйтесь на сайте (ссылка на регистрацию). Pirat.ca - самый быстрый торрент трекер в рунете!

Как скачивать  ·   Что такое торрент  ·   Рейтинг и ограничения

kinstintin

Гроза морей

Пост 12-Окт-2017 20:43 (спустя 36 минут)

[Q] 

не знаю, не знаю...
посмотрим как фильм...
[Профиль]  [ЛС] 

Кристина119

Флибустьер

Пост 15-Окт-2017 13:51 (спустя 2 дня 17 часов)

[Q] 

Фэнтези))) Лови бочку
[Профиль]  [ЛС] 

Gari4

Флибустьер

Пост 15-Окт-2017 22:04 (спустя 8 часов)

[Q] 

что за бред? снято по книге, и, все испорченно - нет той атмосферы, что есть в повести, а первые минут 40, может вообще читать паблик "Борщ" (не считать рекламой), ибо все очень и очень скучно.
Добавим игру актеров и костюмы с декорациями - и то, и то абсолютное ничто....
Неудивительно, что создав из русского кино лишь пародии, картина собрала около 50 000 000 рублей, когда бюджет фильма был в три раза больше Трафик потрачен зря!

_________________
Мы можем быть кем угодно, но главное оставаться людьми.
Группа помощи детям https://vk.com/bfvnimanie
[Профиль]  [ЛС] 

RostislavKis

Морской Волк

17

Пост 16-Окт-2017 15:00 (спустя 16 часов)

[Q] 

Наши фильмы давно уже не могут быть смотрибельными. На любителя

_________________
[Профиль]  [ЛС] 

kpqc

Штурман

Пост 17-Окт-2017 18:22 (спустя 1 день 3 часа)

[Q] 

Третий скрин хороший, но хочется посмотреть продолжение.
[Профиль]  [ЛС] 

shelby290

Флибустьер

Пост 17-Окт-2017 22:39 (спустя 4 часа)

[Q] 

Фильм, мягко говоря, на любителя...
На любителя Автору респект!!!
[Профиль]  [ЛС] 

vasdas

Корсар

Пост 20-Окт-2017 02:13 (спустя 2 дня 3 часа)

[Q] 

Актёрский состав приличный. Спасибо!!! Посмотрим.
[Профиль]  [ЛС] 

pan_tera

Корсар

Пост 23-Окт-2017 01:33 (спустя 2 дня 23 часа)

[Q] 

Я в шоке!!! Описание бестолковое до нельзя!
Описание: Россия, 18 век. На краю Руси, в Карпатских горах.... Где Россия, а где Карпатские горы. Люди включите мозги на конец. Ну ты юморист...
[Профиль]  [ЛС] 

karapuz74

Штурман

Пост 23-Окт-2017 16:21 (спустя 14 часов)

[Q] 

Пародия на фильмы ужасов... Посмотрел треть и стер. Несмотрибельно
[Профиль]  [ЛС] 

Gari4

Флибустьер

Пост 23-Окт-2017 23:36 (спустя 7 часов)

[Q] 

Очередное русское ....овнище! Отказать

_________________
Мы можем быть кем угодно, но главное оставаться людьми.
Группа помощи детям https://vk.com/bfvnimanie
[Профиль]  [ЛС] 

vasdas

Корсар

Пост 28-Окт-2017 04:15 (спустя 4 дня)

[Q] 

Мне кино понравилось. Всем качать!!! Лови бочку
[Профиль]  [ЛС] 
Показать сообщения:    
Ответить на тему

Текущее время: Сегодня 02:41

Часовой пояс: GMT + 4



Вы не можете начинать темы
Вы не можете отвечать на сообщения
Вы не можете редактировать свои сообщения
Вы не можете удалять свои сообщения
Вы не можете голосовать в опросах
Вы не можете прикреплять файлы к сообщениям
Вы не можете скачивать файлы

▼ Вниз