Уважаемый Гость!
Вы можете поддержать проект и зарегистрироваться у наших партнеров - онлайн-стратегия MyLands. При регистрации в игре Вы получите код, который сможете активировать после регистрации на pirat.ca и получить 1000 дублонов.

Ваш код:
31686ab82afe24756b2113244a2731843f2dc73d
 
     

Дух балтийский (Александр Поженский) [2016 г., драма, WEB-DLRip]

Ответить на тему
 
Автор
Сообщение

Пост 20-Июл-2017 16:49

[Q] 

Су-34

Гроза морей

-Дух балтийский- -Производство: Россия
Режиссёр: Александр Поженский
Жанр: драма
Год выпуска: 2016 г.
Продолжительность: 01:22:49-В ролях: Владимир Толоконников, Андрей Мерзликин, Артём Гайдуков, Вера Воронкова, Мария Кулик, Галина Стаханова, Людмила Азнаева, Михаил Владимиров-Описание: В день Победы к уважаемому ветерану Вилену Наумову приходит его флотский сослуживец, погибший в 1941 году. Приходит затем, чтобы расстрелять Вилена как предателя.-Сэмпл КиноПоиск-Качество видео: WEB-DLRip
Контейнер: AVI
Видео кодек: XviD
Аудио кодек: AC3
Видео: 720x296, 25.000 fps, 1499 Кбит/с, 0.293 Bits/(Pixel*Frame)
Аудио: 192 kb/s, 2 ch, 48.0 KHz
Cубтитры: отсутствуют
Последняя роль Владимира Толоконникова.
D:\Torrents\Duh baltijskij.WEB-DLRip.avi
General
Complete name : D:\Torrents\Duh baltijskij.WEB-DLRip.avi
Format : AVI
Format/Info : Audio Video Interleave
File size : 1 008 MiB
Duration : 1h 22mn
Overall bit rate : 1 701 Kbps
Writing application : VirtualDubMod 1.5.10.3 | www.virtualdub-fr.org || (build 2550/release)
Writing library : VirtualDubMod build 2550/release
Video #0
ID : 0
Format : MPEG-4 Visual
Format profile : Advanced [email protected]
Format settings, BVOP : 1
Format settings, QPel : No
Format settings, GMC : No warppoints
Format settings, Matrix : Custom
Codec ID : XVID
Codec ID/Hint : XviD
Duration : 1h 22mn
Bit rate : 1 499 Kbps
Width : 720 pixels
Height : 296 pixels
Display aspect ratio : 2.40:1
Frame rate : 24.000 fps
Color space : YUV
Chroma subsampling : 4:2:0
Bit depth : 8 bits
Scan type : Progressive
Compression mode : Lossy
Bits/(Pixel*Frame) : 0.293
Stream size : 888 MiB (88%)
Writing library : XviD 73
Audio #1
ID : 1
Format : AC-3
Format/Info : Audio Coding 3
Mode extension : CM (complete main)
Format settings, Endianness : Big
Codec ID : 2000
Duration : 1h 22mn
Bit rate mode : Constant
Bit rate : 192 Kbps
Channel count : 2 channels
Channel positions : Front: L R
Sampling rate : 48.0 KHz
Bit depth : 16 bits
Compression mode : Lossy
Stream size : 114 MiB (11%)
Alignment : Split accross interleaves
Interleave, duration : 42 ms (1.00 video frame)
Interleave, preload duration : 500 ms
Download / Скачать

Хотите скачать бесплатно? Зарегистрируйтесь на сайте (ссылка на регистрацию). Pirat.ca - самый быстрый торрент трекер в рунете!

Как скачивать  ·   Что такое торрент  ·   Рейтинг и ограничения



Последний раз редактировалось: Су-34 (2017-07-21 09:05), всего редактировалось 2 раз(а)

kinstintin

Гроза морей

Пост 20-Июл-2017 21:55 (спустя 5 часов)

[Q] 

Спасибо!!!
посмотрю!
[Профиль]  [ЛС] 

Пост 21-Июл-2017 18:15 (спустя 20 часов)

Топик был перенесен из форума Наше кино (Трюм) в форум Новинки (HD|DVD|BD| TV|SAT|PDTV| - Rips)
erchine
 

FakeeR

Шкипер

Пост 25-Июл-2017 14:01 (спустя 4 дня)

[Q] 

Стоит тратить время на сей шедевр???? Отпишитесь зрители!
[Профиль]  [ЛС] 

andreiex

Морской Волк

Пост 25-Июл-2017 15:07 (спустя 1 час 5 минут)

[Q] 

802775Стоит тратить время на сей шедевр???? Отпишитесь зрители!
Учитывая, что фильмов с участием Владимира Толоконникова (земля ему пухом) мы больше увидим, смотреть однозначно стоит. Да и мимо Мерзликина проходить не стоит.
[Профиль]  [ЛС] 

kostua005

Шкипер

17

Пост 30-Июл-2017 02:19 (спустя 4 дня)

[Q] 

Спасибо!!! Супер! надо посмотреть!
[Профиль]  [ЛС] 

andreiex

Морской Волк

Пост 01-Авг-2017 09:10 (спустя 2 дня 6 часов)

[Q] 

Беру свои слова обратно - это полная мура
Трафик потрачен зря!
Несмотря на присутствие всех вышеперечисленных актеров, фильм это ни разу не спасает. Идея невнятна, актерской игры практически нет. Сценарий явно писался за одну ночь, и не обошлось без крепких напитков. После просмотра стойкое ощущение зря потраченного времени и недоумение "что это вообще было?" О чем это?
Релизеру, само собой, спасибо за труды - мало шансов потом найти этот фильм, потому что кому надо его хранить? Не оставляет ощущение, что режиссер (так и не увидел фамилии в титрах) - это пассия кого-то из "больших людей". Авторитета хватило пригласить известных актеров, а на остальное не хватило ни умения, ни таланта. И как теперь отмыться после просмотра, ума не приложу...
[Профиль]  [ЛС] 

bull271174New

Штурман

Пост 03-Авг-2017 23:57 (спустя 2 дня 14 часов)

[Q] 

Продюсер - СЭМ НАЛЬЮ. И этим все сказанно!
[Профиль]  [ЛС] 

balamutych 8

Корсар

Пост 25-Сен-2017 18:41 (спустя 1 месяц 21 день)

[Q] 

Спасибо-заценим
[Профиль]  [ЛС] 

ketzer

Корсар

Пост 27-Сен-2017 03:34 (спустя 1 день 8 часов)

[Q] 

Надо было кол в грудь вбивать и хоронить спиной вверх, тогда бы не пришёл расстреливать. А то шляются всякие.
[Профиль]  [ЛС] 

shapirus

Штурман

Пост 28-Сен-2017 20:51 (спустя 1 день 17 часов)

[Q] 

Бредняк какой то. Фильм без смысла.
[Профиль]  [ЛС] 

grosboy

Гроза морей

Пост 30-Сен-2017 10:48 (спустя 1 день 13 часов)

[Q] 

Поддерживаю! Муть полная.

_________________
Щастье есть - его не может не быть...
[Профиль]  [ЛС] 

tse

Корсар

Пост 29-Окт-2017 01:07 (спустя 28 дней)

[Q] 

Название можно было сократить - не "дух балтийский", а "шпрота".
[Профиль]  [ЛС] 

vasdas

Корсар

Пост 03-Ноя-2017 01:42 (спустя 5 дней)

[Q] 

не смотря на отзывы качну и посмотрю Раздающему респект!
[Профиль]  [ЛС] 

Пост 05-Ноя-2017 00:14 (спустя 1 день 22 часа)

Топик был перенесен из форума Новинки (HD|DVD|BD| TV|SAT|PDTV| - Rips) в форум Российские фильмы
ara1205
 
Показать сообщения:    
Ответить на тему

Текущее время: Сегодня 07:27

Часовой пояс: GMT + 4



Вы не можете начинать темы
Вы не можете отвечать на сообщения
Вы не можете редактировать свои сообщения
Вы не можете удалять свои сообщения
Вы не можете голосовать в опросах
Вы не можете прикреплять файлы к сообщениям
Вы не можете скачивать файлы

▼ Вниз