Питонья яма / Ular / Pithon's Pit (Джейсон Чонг / Jason Chong) [2013 г., ужасы, триллер, DVDRip] VO

Ответить на тему
 
Автор
Сообщение

Пост 07-Ноя-2017 11:13

[Q] 

vamo

Шкипер

Питонья яма / Ular / Pithon's Pit Производство: Малайзия / KRU Studios
Год выпуска: 2013
Жанр: ужасы, триллер
Продолжительность: 01:13:51
Перевод Любительский (двухголосый закадровый) [2D (den904&DeadSno)]
Режиссёр: Джейсон Чонг / Jason Chong
В ролях: Харун Салим Бачик, Кин Ва Чю, Исри Крю, Иззуэ Ислам, Намрон, Шарифах Сакинах, Лиза Сурихани, Ят, Сьюкри Яхья, Зарина Зайнуддин
Описание: Фильм "Питонья Яма" (Pythons' Pit), вышедший в 2013 году на экраны, фактически оказался запрещён во многих странах мира благодаря Министерству Культуры и Отдыха Индонезии. Дело в следующем: мифический остров Панджанг, показанный в фильме, очень напоминал известный курорт Индонезии Пулау Панджанг. Чиновники обвинили режиссёра в том, что сцены показанные в фильмы (питоны по всему острову, отсутствие мер безопасности) нанесли вред данному курорту и напугали туристов, фактически лишив государственную казну источника дохода. С лёгкой руки режиссёра, ведущего довольно агрессивную рекламу своего фильма, в социальных сетях стали всплывать фотографии, где красочно показано, насколько эти чудовища могут быть опасны для человека. Это фактически заставило правительство Индонезии обратиться к мировой общественности с заявлением, что всё, показанное в данном фильме - вымысел. Но дело было сделано. Режиссёр заработал бабло, напуганные туристы шарахались от любого упоминания слова "Панджанг", а фильм был запрещён к публичной демонстрации, что подогрело к нему ещё больший интерес. Вот некоторые из снимков, которые были использованы кинопрокатчиками для рекламы этого фильма. Качество видео: DVDRip
Контейнер: AVI
Видео кодек: XviD
Аудио кодек: AC3
Видео: 720x400 (1.80:1), 25 fps, XviD build 67 ~2403 kbps avg, 0.33 bit/pixel
Аудио: 48 kHz, AC3 Dolby Digital, 2/0 (L,R) ch, ~256 kbps
Cубтитры: нет
Формат : AVI
Формат/Информация : Audio Video Interleave
Профиль формата : OpenDML
Размер файла : 1,38 Гбайт
Продолжительность : 1 ч. 13 м.
Общий поток : 2666 Кбит/сек
Программа кодирования : Lavf57.71.100
Примечание : Rip by Basma4i
Видео
Идентификатор : 0
Формат : MPEG-4 Visual
Профиль формата : Advanced Simple@L5
Параметр BVOP формата : Нет
Параметр QPel формата : Нет
Параметр GMC формата : Без точки перехода
Параметр матрицы формата : Default (H.263)
Идентификатор кодека : XVID
Идентификатор кодека/Подсказка : XviD
Продолжительность : 1 ч. 13 м.
Битрейт : 2398 Кбит/сек
Ширина : 720 пикселей
Высота : 400 пикселей
Соотношение сторон : 16:9
Частота кадров : 25,000 кадров/сек
Цветовое пространство : YUV
Субдискретизация насыщенности : 4:2:0
Битовая глубина : 8 бит
Тип развёртки : Прогрессивная
Метод сжатия : С потерями
Бит/(Пиксели*Кадры) : 0.333
Размер потока : 1,24 Гбайт (90%)
Библиотека кодирования : XviD 67
Аудио
Идентификатор : 1
Формат : AC-3
Формат/Информация : Audio Coding 3
Расширение режима : CM (complete main)
Параметр Endianness формата : Big
Идентификатор кодека : 2000
Продолжительность : 1 ч. 13 м.
Вид битрейта : Постоянный
Битрейт : 256 Кбит/сек
Каналы : 2 канала
Расположение каналов : Front: L R
Частота : 48,0 КГц
Частота кадров : 31,250 кадров/сек (1536 spf)
Битовая глубина : 16 бит
Метод сжатия : С потерями
Размер потока : 135 Мбайт (10%)
Выравнивание : Соединение по промежуткам
Продолжительность промежутка : 32 мс. (0,80 видеокадр)
Заголовок : Rus
Download / Скачать

Хотите скачать бесплатно? Зарегистрируйтесь на сайте (ссылка на регистрацию). Pirat.ca - самый быстрый торрент трекер в рунете!

Как скачивать  ·   Что такое торрент  ·   Рейтинг и ограничения

Показать сообщения:    
Ответить на тему

Текущее время: Сегодня 04:21

Часовой пояс: GMT + 4



Вы не можете начинать темы
Вы не можете отвечать на сообщения
Вы не можете редактировать свои сообщения
Вы не можете удалять свои сообщения
Вы не можете голосовать в опросах
Вы не можете прикреплять файлы к сообщениям
Вы не можете скачивать файлы

Майнать ▼