Уважаемый Гость!
Вы можете поддержать проект и зарегистрироваться у наших партнеров - онлайн-стратегия MyLands. При регистрации в игре Вы получите код, который сможете активировать после регистрации на pirat.ca и получить 1000 дублонов.

Ваш код:
a9b349baa57de7d7adaf58bb190f2e1f2f1d50db
 
     

Гуляй, Вася! (Роман Каримов) [2016 г., комедия, BDRip] Original (Лицензия)

Ответить на тему
 
Автор
Сообщение

Пост 31-Май-2017 11:19

[Q] 

ara1205

-Гуляй, Вася!-- Производство: Россия
Год выпуска: 2016 г.
Жанр: комедия
Продолжительность: 01:36:02
Перевод: Не требуется-Режиссёр: Роман Каримов-В ролях: Ефим Петрунин, Любовь Аксенова, Роман Курцын, Софья Райзман, Борис Дергачев, Сергей Аброскин, Светлана Степанковская, Вера Панфилова, Наталья Тетенова, Давид Петросян-Описание: Бедный Митя влип по полной: случайно сделал предложение, а отец девушки, как будто только этого и ждал — тут же назначил дату свадьбы. Все бы ничего, да только Митя… уже женат! Он возвращается в свой город, чтобы экстренно развестись. Но Василиса (или просто Вася), с которой они давно не живут, — циничная стерва, и за развод придется побороться. Простейший способ ускорить процесс — предъявить первую попавшуюся «невесту». Кто же знал, что у нее имеется настоящий жених, местный качок… Окончательно все запутывается, когда разруливать ситуацию берутся бывшие одноклассники Мити — подкаблучник Паша и аферист Гарик.- -Качество видео: BDRip
Контейнер: AVI
Видео кодек: XviD
Аудио кодек: AC3
Видео: 704x400, 24 fps, 1707 kbps avg, 0.253 bit/pixel
Аудио: 48 kHz, AC3 Dolby Digital, 3/2 (L,C,R,l,r) + LFE ch, ~448 kbps avg
Cубтитры: отсутствуют-
C:\Users\Admin\Videos\Гуляй, Вася!\Gylau.Vasya.2016.BDRip.[pirat.ca].avi
General
Complete name : C:\Users\Admin\Videos\Гуляй, Вася!\Gylau.Vasya.2016.BDRip.[pirat.ca].avi
Format : AVI
Format/Info : Audio Video Interleave
File size : 1.45 GiB
Duration : 1 h 36 min
Overall bit rate : 2 164 kb/s
Movie name : Gylau.Vasya.2016.BDRip
Writing application : VirtualDubMod 1.5.10.2 (build 2540/release)
Video #0
ID : 0
Format : MPEG-4 Visual
Format profile : Advanced [email protected]
Format settings, BVOP : 1
Format settings, QPel : No
Format settings, GMC : No warppoints
Format settings, Matrix : Custom
Codec ID : XVID
Codec ID/Hint : XviD
Duration : 1 h 36 min
Bit rate : 1 707 kb/s
Width : 704 pixels
Height : 400 pixels
Display aspect ratio : 16:9
Frame rate : 24.000 FPS
Color space : YUV
Chroma subsampling : 4:2:0
Bit depth : 8 bits
Scan type : Progressive
Compression mode : Lossy
Bits/(Pixel*Frame) : 0.253
Stream size : 1.14 GiB (79%)
Writing library : XviD 65
Audio #1
ID : 1
Format : AC-3
Format/Info : Audio Coding 3
Mode extension : CM (complete main)
Format settings, Endianness : Big
Codec ID : 2000
Duration : 1 h 36 min
Bit rate mode : Constant
Bit rate : 448 kb/s
Channel(s) : 6 channels
Channel positions : Front: L C R, Side: L R, LFE
Sampling rate : 48.0 kHz
Frame rate : 31.250 FPS (1536 spf)
Compression mode : Lossy
Stream size : 308 MiB (21%)
Alignment : Split accross interleaves
Interleave, duration : 42 ms (1.00 video frame)
Interleave, preload duration : 500 ms
-
-
Download / Скачать

Хотите скачать бесплатно? Зарегистрируйтесь на сайте (ссылка на регистрацию). Pirat.ca - самый быстрый торрент трекер в рунете!

Как скачивать  ·   Что такое торрент  ·   Рейтинг и ограничения

Golsergio

Гроза морей

Пост 01-Июн-2017 12:32 (спустя 1 день 1 час)

[Q] 

Ну и как кино? Отпишитесь, плиз......
[Профиль]  [ЛС] 

shnabs

Штурман

187

Пост 01-Июн-2017 23:31 (спустя 10 часов)

[Q] 

за раздачу спасибо. Но зная наше кино, интересует тот же вопрос - ну и как кино? стоит качать вообще?
[Профиль]  [ЛС] 

sanches76

Штурман

Пост 02-Июн-2017 10:14 (спустя 10 часов)

[Q] 

Смотреть можно, есть ржачные моменты!
[Профиль]  [ЛС] 

redfield

Морской Волк

Пост 05-Июн-2017 19:16 (спустя 3 дня)

[Q] 

Редкосное, ..... как и все наше современное
[Профиль]  [ЛС] 

maksbrnv

Лоцман

Пост 06-Июн-2017 22:34 (спустя 1 день 3 часа)

[Q] 

Мне понравилось
[Профиль]  [ЛС] 

maiotome

Штурман

Пост 06-Июн-2017 22:41 (спустя 6 минут)

[Q] 

Фильм шикарный. Каримов - шикарный режиссер.
[Профиль]  [ЛС] 

fittopage

Лоцман

Пост 07-Июн-2017 22:03 (спустя 23 часа)

[Q] 

Если бы не голая жопа на скрине, не качнул бы :)
[Профиль]  [ЛС] 

vasdas

Корсар

Пост 19-Сен-2017 00:21 (спустя 3 месяца 11 дней)

[Q] 

легкая комедия, понравилась Лови бочку
[Профиль]  [ЛС] 

TDK

Штурман

Пост 09-Ноя-2017 21:54 (спустя 1 месяц 20 дней)

[Q] 

Супер! СПАСИБО!
[Профиль]  [ЛС] 
Показать сообщения:    
Ответить на тему

Текущее время: Сегодня 04:12

Часовой пояс: GMT + 4



Вы не можете начинать темы
Вы не можете отвечать на сообщения
Вы не можете редактировать свои сообщения
Вы не можете удалять свои сообщения
Вы не можете голосовать в опросах
Вы не можете прикреплять файлы к сообщениям
Вы не можете скачивать файлы

▼ Вниз