О теле и душе / Testről és Lélekről (Ильдико Эньеди / Ildikó Enyedi) [2017 г., драма, мелодрама, WEB-DLRip] MVO [iTunes]

Ответить на тему
 
Автор
Сообщение

Пост 15-Ноя-2017 12:15

[Q] 

ara1205

-О теле и душе / Testről és Lélekről-- Производство: Венгрия
Год выпуска: 2017 г.
Жанр: драма, мелодрама
Продолжительность: 01:55:34
Мировая премьера: 10 февраля 2017
Российская премьера: 12 октября 2017
Перевод: Профессиональный (многоголосый, закадровый) [iTunes]-Режиссёр: Ильдико Эньеди / Ildikó Enyedi-В ролях: Геза Морчани, Александра Борбей, Золтан Шнайдер, Эрвин Надь, Тамаш Йордан, Жужа Яро, Река Тенки, Юлия Ньяко, Итала Бекеш, Эва Бата-Описание: Сторонящаяся людей Мария и общительный, но одинокий Эндре — коллеги. Оба ведут замкнутый образ жизни и стараются избегать общения друг с другом. Неожиданно для себя они узнают, что каждую ночь им снятся одинаковые сны. Видя в этом некий знак, герои решаются на сближение. Открывшись друг другу, Эндре и Мария окажутся в водовороте комических и даже шокирующих событий…- -Качество видео: WEB-DLRip
Контейнер: AVI
Видео кодек: XviD
Аудио кодек: AC3
Видео: 720х304, 24 fps, 1416 Kbps, 0.27 bits/pixel
Аудио: 48 kHz, AC3 Dolby Digital, 6 ch, 384 Kbps
Cубтитры: отсутствуют-
Общее
Полное имя : C:\Users\Admin\Pictures\О теле и душе\O.Tele.I.Dushe.2017.WEB-DLRip.[pirat.ca].avi
Формат : AVI
Формат/Информация : Audio Video Interleave
Размер файла : 1,46 Гбайт
Продолжительность : 1 ч. 55 м.
Общий поток : 1809 Кбит/сек
Программа кодирования : VirtualDubMod 1.5.10.2 (build 2540/release)
Библиотека кодирования : VirtualDubMod build 2540/release
Видео
Идентификатор : 0
Формат : MPEG-4 Visual
Профиль формата : Advanced [email protected]
Параметр BVOP формата : 1
Параметр QPel формата : Нет
Параметр GMC формата : Без точки перехода
Параметр матрицы формата : Выборочная
Идентификатор кодека : XVID
Идентификатор кодека/Подсказка : XviD
Продолжительность : 1 ч. 55 м.
Битрейт : 1416 Кбит/сек
Ширина : 720 пикселей
Высота : 304 пикселя
Соотношение сторон : 2,35:1
Частота кадров : 24,000 кадра/сек
Цветовое пространство : YUV
Субдискретизация насыщенности : 4:2:0
Битовая глубина : 8 бит
Тип развёртки : Прогрессивная
Метод сжатия : С потерями
Бит/(Пиксели*Кадры) : 0.270
Размер потока : 1,14 Гбайт (78%)
Библиотека кодирования : XviD 73
Аудио
Идентификатор : 1
Формат : AC-3
Формат/Информация : Audio Coding 3
Расширение режима : CM (complete main)
Параметр Endianness формата : Big
Идентификатор кодека : 2000
Продолжительность : 1 ч. 55 м.
Вид битрейта : Постоянный
Битрейт : 384 Кбит/сек
Каналы : 6 каналов
Расположение каналов : Front: L C R, Side: L R, LFE
Частота : 48,0 КГц
Битовая глубина : 16 бит
Метод сжатия : С потерями
Размер потока : 317 Мбайт (21%)
Выравнивание : Разделение по промежуткам
Продолжительность промежутка : 42 мс. (1,00 видеокадр)
Время предзагрузки промежутка : 500 мс.
-
-
Download / Скачать

Хотите скачать бесплатно? Зарегистрируйтесь на сайте (ссылка на регистрацию). Pirat.ca - самый быстрый торрент трекер в рунете!

Как скачивать  ·   Что такое торрент  ·   Рейтинг и ограничения

IgorWOO

Корсар

Пост 15-Ноя-2017 20:21 (спустя 8 часов)

[Q] 

За раздачу спс) На 10 мин хватило. Есть кто продвинулся дальше стоит смотреть?
[Профиль]  [ЛС] 

Василек

Юнга

Пост 15-Ноя-2017 23:36 (спустя 3 часа)

[Q] 

Если интересно как на бойне их крупного рогатого скота получают говядину- Вам сюда.
Если интересно как дебилка и дебил от платонической любви (в снах) пытаются перейти к плотской - Вам сюда.
В общем тупость. Жалко потраченного времени.
[Профиль]  [ЛС] 

loki.li

Лоцман

7

Пост 23-Ноя-2017 05:03 (спустя 7 дней)

[Q] 

Чем-то напомнило "О лошадях и людях".
Жанр: драма, повседневность, мистика, мелодрама - как-то так по содержанию и в порядке следования сюжета
Один раз посмотреть - времени не жалко, но пересматривать не буду
[Профиль]  [ЛС] 

Пост 13-Янв-2018 10:32 (спустя 1 месяц 20 дней)

Топик был перенесен из форума Новинки (HD|DVD|BD| TV|SAT|PDTV| - Rips) в форум Фильмы 2010 - 2017 г.г.
aleksey99
 
Показать сообщения:    
Ответить на тему

Текущее время: Сегодня 12:58

Часовой пояс: GMT + 4



Вы не можете начинать темы
Вы не можете отвечать на сообщения
Вы не можете редактировать свои сообщения
Вы не можете удалять свои сообщения
Вы не можете голосовать в опросах
Вы не можете прикреплять файлы к сообщениям
Вы не можете скачивать файлы

Майнать ▼