Замена / Replace (Норберт Кейл / Norbert Keil) [2017 г, ужасы, триллер, WEB-DLRip] MVO

Ответить на тему
 
Автор
Сообщение

Пост 16-Ноя-2017 19:27

[Q] 

vamo

Шкипер

Замена / Replace Производство: Германия, Канада
Год выпуска: 2017
Жанр: ужасы, триллер
Продолжительность: 01:42:02
Перевод Любительский (многоголосый закадровый) ["Синема УС"]
Режиссёр: Норберт Кейл / Norbert Keil
В ролях: Ребекка Форсайт, Люси Арон, Барбара Крэмптон, Шон Нопп, Аднан Марал, Агнес Кийоми Декер, Дж. Дэвид Хинц, Тереза Глюк, Даниэль Хольцберг, Маттиас Байер
Описание: Молодая девушка Кира сталкивается со странной болезнью: ее кожа быстро стареет и начинает осыпаться. От этой заразы находится лечение — Кира может заменить собственную кожу чужой, но ей приходится выбирать: погибнуть самой или выжить, погубив кого-то другого. Качество видео: WEB-DLRip
Контейнер: AVI
Видео кодек: XviD
Аудио кодек: AC3
Видео: 720x304 (2.37:1), 23.976 fps, XviD build 67 ~2403 kbps avg, 0.46 bit/pixel
Аудио: 48 kHz, AC3 Dolby Digital, 2/0 (L,R) ch, ~448 kbps
Cубтитры: нет
Формат : AVI
Формат/Информация : Audio Video Interleave
Профиль формата : OpenDML
Размер файла : 2,04 Гбайт
Продолжительность : 1 ч. 42 м.
Общий поток : 2859 Кбит/сек
Программа кодирования : Lavf57.71.100
Примечание : Rip by Basma4i
Видео
Идентификатор : 0
Формат : MPEG-4 Visual
Профиль формата : Advanced Simple@L5
Параметр BVOP формата : Нет
Параметр QPel формата : Нет
Параметр GMC формата : Без точки перехода
Параметр матрицы формата : Default (H.263)
Идентификатор кодека : XVID
Идентификатор кодека/Подсказка : XviD
Продолжительность : 1 ч. 42 м.
Битрейт : 2400 Кбит/сек
Ширина : 720 пикселей
Высота : 304 пикселя
Соотношение сторон : 2,35:1
Частота кадров : 23,976 (24000/1001) кадра/сек
Цветовое пространство : YUV
Субдискретизация насыщенности : 4:2:0
Битовая глубина : 8 бит
Тип развёртки : Прогрессивная
Метод сжатия : С потерями
Бит/(Пиксели*Кадры) : 0.457
Размер потока : 1,71 Гбайт (84%)
Библиотека кодирования : XviD 67
Аудио
Идентификатор : 1
Формат : AC-3
Формат/Информация : Audio Coding 3
Расширение режима : CM (complete main)
Параметр Endianness формата : Big
Идентификатор кодека : 2000
Продолжительность : 1 ч. 42 м.
Вид битрейта : Постоянный
Битрейт : 448 Кбит/сек
Каналы : 2 канала
Расположение каналов : Front: L R
Частота : 48,0 КГц
Частота кадров : 31,250 кадров/сек (1536 spf)
Битовая глубина : 16 бит
Метод сжатия : С потерями
Размер потока : 327 Мбайт (16%)
Выравнивание : Соединение по промежуткам
Продолжительность промежутка : 32 мс. (0,77 видеокадр)
Download / Скачать

Хотите скачать бесплатно? Зарегистрируйтесь на сайте (ссылка на регистрацию). Pirat.ca - самый быстрый торрент трекер в рунете!

Как скачивать  ·   Что такое торрент  ·   Рейтинг и ограничения

Apostle358

Флибустьер

168

Пост 18-Ноя-2017 07:52 (спустя 1 день 12 часов)

[Q] 

Тема сисек раскрыта - качаем!
[Профиль]  [ЛС] 

nakme

Шкипер

Пост 19-Ноя-2017 16:11 (спустя 1 день 8 часов)

[Q] 

Уныляшка. Не самое отвратное из виденного мной, не воротило.
[Профиль]  [ЛС] 

ketzer

Корсар

Пост 21-Ноя-2017 08:29 (спустя 1 день 16 часов)

[Q] 

Вообще-то не самый плохой фильм, несмотря на его трэшовость. Вот только музыка задолбала, всю дорогу крещендо какое-то, ну или я не знаю.
[Профиль]  [ЛС] 

Пост 13-Янв-2018 10:32 (спустя 1 месяц 22 дня)

Топик был перенесен из форума Новинки (HD|DVD|BD| TV|SAT|PDTV| - Rips) в форум Фильмы 2010 - 2017 г.г.
aleksey99
 
Показать сообщения:    
Ответить на тему

Текущее время: Сегодня 18:48

Часовой пояс: GMT + 4



Вы не можете начинать темы
Вы не можете отвечать на сообщения
Вы не можете редактировать свои сообщения
Вы не можете удалять свои сообщения
Вы не можете голосовать в опросах
Вы не можете прикреплять файлы к сообщениям
Вы не можете скачивать файлы

Майнать ▼