Сексология. Женский оргазм / Sexology (Габриэль Анвар / Gabriel Anwar) [2016 г., документальный, WEB-DLRip] MVO

Ответить на тему
 
Автор
Сообщение

Пост 21-Ноя-2017 19:51

[Q] 

Су-34

Легенда

-Сексология. Женский оргазм / Sexology- -Производство: Великобритания
Жанр: документальный
Год выпуска: 2016 г.
Продолжительность: 01:33:0
Перевод: Любительский (многоголосый, закадровый)
Автор(ы) перевода: Синема УС-Режиссёр: Габриэль Анвар / Gabriel Anwar-В ролях: Габриэль Анвар, Кэтрин Оксенберг-Описание: Многие столетия женские оргазмы считались феноменом, и даже сейчас ученые спорят, от чего он зависит. Влияет ли опыт мужчины на достижение оргазма? Нужна ли прелюдия? Что такое женская сексуальность? На все эти вопросы вы получите ответы.-Качество видео: WEB-DLRip
Контейнер: AVI
Видео кодек: XviD
Аудио кодек: AC3
Видео: 720x400, 23,976 кадр/сек, 1703 Кбит/сек
Аудио: 48 КГц, АС3, 2 канала, 384 Кбит/сек
Cубтитры: отсутствуют
D:\Torrents\Сексология. Женский оргазм. 2016.avi
General
Complete name : D:\Torrents\Сексология. Женский оргазм. 2016.avi
Format : AVI
Format/Info : Audio Video Interleave
File size : 1.37 GiB
Duration : 1h 33mn
Overall bit rate : 2 096 Kbps
Writing application : VirtualDubMod 1.5.10.2 (build 2540/release)
Writing library : VirtualDubMod build 2540/release
Video #0
ID : 0
Format : MPEG-4 Visual
Format profile : Advanced [email protected]
Format settings, BVOP : 2
Format settings, QPel : No
Format settings, GMC : No warppoints
Format settings, Matrix : Default (MPEG)
Codec ID : XVID
Codec ID/Hint : XviD
Duration : 1h 33mn
Bit rate : 1 703 Kbps
Width : 720 pixels
Height : 400 pixels
Display aspect ratio : 16:9
Frame rate : 23.976 fps
Color space : YUV
Chroma subsampling : 4:2:0
Bit depth : 8 bits
Scan type : Progressive
Compression mode : Lossy
Bits/(Pixel*Frame) : 0.247
Stream size : 1.11 GiB (81%)
Writing library : XviD 1.2.1 (UTC 2008-12-04)
Audio #1
ID : 1
Format : AC-3
Format/Info : Audio Coding 3
Mode extension : CM (complete main)
Format settings, Endianness : Big
Codec ID : 2000
Duration : 1h 33mn
Bit rate mode : Constant
Bit rate : 384 Kbps
Channel count : 2 channels
Channel positions : Front: L R
Sampling rate : 48.0 KHz
Bit depth : 16 bits
Compression mode : Lossy
Stream size : 256 MiB (18%)
Alignment : Split accross interleaves
Interleave, duration : 42 ms (1.00 video frame)
Interleave, preload duration : 500 ms
Download / Скачать

Хотите скачать бесплатно? Зарегистрируйтесь на сайте (ссылка на регистрацию). Pirat.ca - самый быстрый торрент трекер в рунете!

Как скачивать  ·   Что такое торрент  ·   Рейтинг и ограничения

pacco

Корсар

Пост 23-Ноя-2017 17:54 (спустя 1 день 22 часа)

[Q] 

у Анвара волшебные пальцы
[Профиль]  [ЛС] 
Показать сообщения:    
Ответить на тему

Текущее время: Сегодня 08:19

Часовой пояс: GMT + 4



Вы не можете начинать темы
Вы не можете отвечать на сообщения
Вы не можете редактировать свои сообщения
Вы не можете удалять свои сообщения
Вы не можете голосовать в опросах
Вы не можете прикреплять файлы к сообщениям
Вы не можете скачивать файлы

Майнать ▼