Наёмник / American Assassin (Майкл Куэста / Michael Cuesta) [2017 г., боевик, триллер, HDRip] MVO

Ответить на тему
 
Автор
Сообщение

Пост 23-Ноя-2017 21:18

[Q] 

ara1205

-Наёмник / American Assassin-- Производство: США
Год выпуска: 2017 г.
Жанр: боевик, триллер
Продолжительность: 01:52:31
Мировая премьера: 6 сентября 2017
Российская премьера: 28 сентября 2017
Перевод: Любительский (многоголосый, закадровый) [@MUZOBOZ@]-Режиссёр: Майкл Куэста / Michael Cuesta-В ролях: Дилан О’Брайен, Шарлотта Вега, Кристофер Уэбстер, Шахид Ахмед, Бастер Ривз, Ник Кавальере, Саймон Коннолли, Юсеф «Джо» Свейд, Джуст Янссен-Описание: Тайный наёмник ЦРУ Митч Рэпп раздавлен потерей невесты в результате теракта. Заместитель директора ЦРУ назначает Стэна Хёрли обучать убитого горем, но серьёзно настроенного Митча для предотвращения террористических операций и охоты на преступников. Вместе они исследуют волну, на первый взгляд, случайных нападений на военные и гражданские объекты. Но позже напарникам предстоит объединиться с турецким агентом, чтобы предотвратить начало Третьей мировой войны на Ближнем Востоке.- -Качество видео: HDRip
Контейнер: AVI
Видео кодек: XviD
Аудио кодек: AC3
Видео: 720х320, 23,976 fps, 1653 Kbps, 0.315 bits/pixel
Аудио: 48 kHz, AC3 Dolby Digital, 2 ch, 192 Kbps
Cубтитры: отсутствуют-
Общее
Полное имя : C:\Users\Admin\Pictures\Наемник\American.assassin.2017.P.HDRip.14OOMB.avi
Формат : AVI
Формат/Информация : Audio Video Interleave
Размер файла : 1,46 Гбайт
Продолжительность : 1 ч. 52 м.
Общий поток : 1854 Кбит/сек
Программа кодирования : VirtualDubMod 1.5.10.2 (build 2540/release)
Библиотека кодирования : VirtualDubMod build 2540/release
Видео
Идентификатор : 0
Формат : MPEG-4 Visual
Профиль формата : Advanced Simple@L5
Параметр BVOP формата : 2
Параметр QPel формата : Нет
Параметр GMC формата : Без точки перехода
Параметр матрицы формата : Default (MPEG)
Идентификатор кодека : XVID
Идентификатор кодека/Подсказка : XviD
Продолжительность : 1 ч. 52 м.
Битрейт : 1653 Кбит/сек
Ширина : 720 пикселей
Высота : 304 пикселя
Соотношение сторон : 2,35:1
Частота кадров : 23,976 кадра/сек
Цветовое пространство : YUV
Субдискретизация насыщенности : 4:2:0
Битовая глубина : 8 бит
Тип развёртки : Прогрессивная
Метод сжатия : С потерями
Бит/(Пиксели*Кадры) : 0.315
Размер потока : 1,30 Гбайт (89%)
Библиотека кодирования : XviD 1.2.1 (UTC 2008-12-04)
Аудио
Идентификатор : 1
Формат : AC-3
Формат/Информация : Audio Coding 3
Расширение режима : CM (complete main)
Параметр Endianness формата : Big
Идентификатор кодека : 2000
Продолжительность : 1 ч. 52 м.
Вид битрейта : Постоянный
Битрейт : 192 Кбит/сек
Каналы : 2 канала
Расположение каналов : Front: L R
Частота : 48,0 КГц
Битовая глубина : 16 бит
Метод сжатия : С потерями
Размер потока : 155 Мбайт (10%)
Выравнивание : Разделение по промежуткам
Продолжительность промежутка : 42 мс. (1,00 видеокадр)
Время предзагрузки промежутка : 500 мс.
-
-ВНИМАНИЕ!!! В ВИДЕОФАЙЛЕ ПРИСУТСТВУЕТ РЕКЛАМА!!!-
Download / Скачать

Хотите скачать бесплатно? Зарегистрируйтесь на сайте (ссылка на регистрацию). Pirat.ca - самый быстрый торрент трекер в рунете!

Как скачивать  ·   Что такое торрент  ·   Рейтинг и ограничения

Sega19

Морской Волк

Пост 24-Ноя-2017 12:46 (спустя 15 часов)

[Q] 

Как всегда сказка о самых "лучших американцах"которые спасают весь мир от всех бед (от себя бы лучше спасли)
[Профиль]  [ЛС] 

zvernight

Гроза морей

Пост 24-Ноя-2017 21:32 (спустя 8 часов)

[Q] 

Shiva Negar на пятом скрине намекает, что можно попытаться посмотреть :)
[Профиль]  [ЛС] 

usya5

Корсар

Пост 25-Ноя-2017 12:07 (спустя 14 часов)

[Q] 

812680Shiva Negar на пятом скрине намекает, что можно попытаться посмотреть :)
если присмотреться к ее улыбке, становится ясно, что ее пучит от смеха от сюжета этого кина:))
[Профиль]  [ЛС] 

alersander

Корсар

Пост 03-Дек-2017 02:05 (спустя 7 дней)

[Q] 

посмотрим что за фильма Лови бочку
[Профиль]  [ЛС] 

Пост 13-Янв-2018 10:32 (спустя 1 месяц 10 дней)

Топик был перенесен из форума Новинки (HD|DVD|BD| TV|SAT|PDTV| - Rips) в форум Фильмы 2010 - 2017 г.г.
aleksey99
 
Показать сообщения:    
Ответить на тему

Текущее время: Сегодня 06:16

Часовой пояс: GMT + 4



Вы не можете начинать темы
Вы не можете отвечать на сообщения
Вы не можете редактировать свои сообщения
Вы не можете удалять свои сообщения
Вы не можете голосовать в опросах
Вы не можете прикреплять файлы к сообщениям
Вы не можете скачивать файлы

Майнать ▼