ДругаяЖизнь / OtherLife (Бен С. Лукас / Ben C. Lucas) [2017 г., фантастика, триллер, криминал, детектив, WEBRip] MVO

Ответить на тему
 
Автор
Сообщение

Пост 21-Ноя-2017 22:04

[Q] 

ara1205

-ДругаяЖизнь / OtherLife-- Производство: Австралия
Год выпуска: 2017 г.
Жанр: фантастика, триллер, криминал, детектив
Продолжительность: 01:35:55
Мировая премьера: 16 июня 2017
Перевод: Любительский (многоголосый, закадровый) [Синема УС]-Режиссёр: Бен С. Лукас / Ben C. Lucas-В ролях: Джессика Де Гау, Шалом Брюн-Фрэнклин, Томас Кокерел, Т.Дж. Пауэр, Лайам Грэхэм, Кларенс Джон Райан, Сара Хопкинс, Хоа Сюаньдэ-Описание: Рэн Амари — главный изобретатель нового революционного препарата. ДругаяЖизнь расширяет восприятие времени и создаёт виртуальную реальность в голове человека. С ДругойЖизнью доли секунд в реальном времени ощущаются, как часы или дни. Пока Рэн и её коллеги пытаются запустить препарат в производство, правительство решает использовать его как радикальное решение для переполненных тюрем. С помощью препарата можно создать виртуальные камеры, где преступники могут отбывать долгий срок всего за минуты в реальном времени. Рэн идёт против правительства и оказывается в тюремной клетке собственного разума.- -Качество видео: WEBRip
Контейнер: AVI
Видео кодек: XviD
Аудио кодек: AC3
Видео: 720х304, 24 fps, 1834 Kbps, 0.349 bits/pixel
Аудио: 48 kHz, AC3 Dolby Digital, 2 ch, 192 Kbps
Cубтитры: отсутствуют-
Общее
Полное имя : C:\Users\Admin\Pictures\ДругаяЖизнь\DrugayaGizn.2017.WEBRip.[pirat.ca].avi
Формат : AVI
Формат/Информация : Audio Video Interleave
Размер файла : 1,36 Гбайт
Продолжительность : 1 ч. 35 м.
Общий поток : 2036 Кбит/сек
Название фильма : Rustorrents.pw
Программа кодирования : VirtualDubMod 1.5.10.3 | www.virtualdub-fr.org || (build 2550/release)
Видео
Идентификатор : 0
Формат : MPEG-4 Visual
Профиль формата : Advanced [email protected]
Параметр BVOP формата : 2
Параметр QPel формата : Нет
Параметр GMC формата : Без точки перехода
Параметр матрицы формата : Выборочная
Идентификатор кодека : XVID
Идентификатор кодека/Подсказка : XviD
Продолжительность : 1 ч. 35 м.
Битрейт : 1834 Кбит/сек
Ширина : 720 пикселей
Высота : 304 пикселя
Соотношение сторон : 2,35:1
Частота кадров : 24,000 кадра/сек
Цветовое пространство : YUV
Субдискретизация насыщенности : 4:2:0
Битовая глубина : 8 бит
Тип развёртки : Прогрессивная
Метод сжатия : С потерями
Бит/(Пиксели*Кадры) : 0.349
Размер потока : 1,23 Гбайт (90%)
Библиотека кодирования : XviD 1.2.1 (UTC 2008-12-04)
Аудио
Идентификатор : 1
Формат : AC-3
Формат/Информация : Audio Coding 3
Расширение режима : CM (complete main)
Параметр Endianness формата : Big
Идентификатор кодека : 2000
Продолжительность : 1 ч. 35 м.
Вид битрейта : Постоянный
Битрейт : 192 Кбит/сек
Каналы : 2 канала
Расположение каналов : Front: L R
Частота : 48,0 КГц
Битовая глубина : 16 бит
Метод сжатия : С потерями
Размер потока : 132 Мбайт (9%)
Выравнивание : Разделение по промежуткам
Продолжительность промежутка : 42 мс. (1,00 видеокадр)
Время предзагрузки промежутка : 500 мс.
-
-
Download / Скачать

Хотите скачать бесплатно? Зарегистрируйтесь на сайте (ссылка на регистрацию). Pirat.ca - самый быстрый торрент трекер в рунете!

Как скачивать  ·   Что такое торрент  ·   Рейтинг и ограничения

Golsergio

Гроза морей

Пост 22-Ноя-2017 15:07 (спустя 17 часов)

[Q] 

ну и как фильм? отпишитесь, плиззз
[Профиль]  [ЛС] 

Skat.56

Легенда

452

Пост 22-Ноя-2017 19:43 (спустя 4 часа)

[Q] 

812525ну и как фильм? отпишитесь, плиззз
Неплохой фильм, не матрица конечно, но вечерок скоротать пойдет.

_________________
[Профиль]  [ЛС] 

alersander

Корсар

Пост 23-Ноя-2017 02:29 (спустя 6 часов)

[Q] 

сейчас заценим Лови бочку
Добавлено спустя 1 час 17 минут 43 секунды:
фильм понравился рекомендую Автору респект!!!
[Профиль]  [ЛС] 

pacco

Корсар

Пост 23-Ноя-2017 17:49 (спустя 15 часов)

[Q] 

интересный фильмец Лови бочку
[Профиль]  [ЛС] 

rampage-2

Морской Волк

Пост 24-Ноя-2017 12:28 (спустя 18 часов)

[Q] 

Хороший фильм, любители матрицы, форсажа, крутого экшена, может и не поймут, но любителям фантастики очень понравиться!
[Профиль]  [ЛС] 

zvernight

Гроза морей

Пост 24-Ноя-2017 20:55 (спустя 8 часов)

[Q] 

Постер понравился Кто здесь?

Лови бочку
[Профиль]  [ЛС] 

Роман Чистов

Шкипер

Пост 25-Ноя-2017 21:52 (спустя 1 день)

[Q] 

Фильм реально противный: музыка вызывает головняк; главная порно-героиня почему-то именуется ученым, хотя за весь фильм не сказала ничего умного (тока в комп таращилась на непонятные графики) - и утомила конкретно своей постоянно грустной или злобной мордой. Герои абсолютно несимпатичны. В повествовании мало логики. С логикой не дружит и актерская игра, и работа режиссера. Оператор тоже оргазм своей работой не вызывает. Если кто-то там что-то передовое нашел в сюжете - это ваше заблуждение. Фантастики на тему отъезда в другую реальность наснимали уже мало не десяток. ...Думаю, фильм надо было назвать не OtherLife, а StonedBluntBitch - ну, или в цензурном варианте Queen of drugs.
PS Пожалел, что посмотрел - не нужно было этого делать... (((
[Профиль]  [ЛС] 

loki.li

Лоцман

7

Пост 07-Дек-2017 06:47 (спустя 11 дней)

[Q] 

Эмоционально сильный фильм.
" ... утомила конкретно своей постоянно грустной или злобной мордой ... " (с) - фильм не о радости, так что морда соответствует
К жанру добавил бы: драма
[Профиль]  [ЛС] 

zmaksimz

Корсар

Пост 07-Дек-2017 14:44 (спустя 7 часов)

[Q] 

Ну так себе кино, как по-мне не очень
[Профиль]  [ЛС] 

Пост 13-Янв-2018 10:32 (спустя 1 месяц 5 дней)

Топик был перенесен из форума Новинки (HD|DVD|BD| TV|SAT|PDTV| - Rips) в форум Фильмы 2010 - 2017 г.г.
aleksey99
 
Показать сообщения:    
Ответить на тему

Текущее время: Сегодня 19:33

Часовой пояс: GMT + 4



Вы не можете начинать темы
Вы не можете отвечать на сообщения
Вы не можете редактировать свои сообщения
Вы не можете удалять свои сообщения
Вы не можете голосовать в опросах
Вы не можете прикреплять файлы к сообщениям
Вы не можете скачивать файлы

Майнать ▼