Баскетбол Куроко 3 / Basketball with Kuroko plays 3 (Сюнсукэ Тада\Shunsuke Tada) [TV3] [1 из 26] [2015 г.] [Комедия, Школа, Сёнен, Спорт.] [HDTV] [720p] [RUS]

Ответить на тему
 
Автор
Сообщение

Пост 16-Янв-2015 17:44

[Q] 

clavik21

Шкипер

Баскетбол Куроко 3 / Basketball with Kuroko plays 3 Год выпуска: 2015
Страна: Япония
Жанр: Комедия, Школа, Сёнен, Спорт.
Продолжительность: 25 мин
Тип: TV-сериал
Количество серий: 1 из 26
Озвучка: Профессиональная (полное дублирование) от AniDUB Jam, Nika Lenina
Субтитры: отсутствуют
Качество видео: HDTV
Режиссер: Сюнсукэ Тада\Shunsuke Tada
Студия:
Описание: Зимний кубок не за горами, он — цель героев, ставших сильнее и опытнее благодаря усердным тренировкам и прошедшим играм с другими школами. Но столь лакомый кусочек вряд ли останется без внимания, ведь соперники тоже не стояли на месте все это время. Поверженные во втором сезоне стали лишь стимулом для других команд, «поколение чудес» ещё покажет себя на площадке. А посему Сэйрин вместе с знаменитыми Куроко и Кагами потребуется приложить немало усилий, дабы сокрушить всех асов, их школы и вырвать победу!

Источник: HDTV
Контейнер: MKV
Видео кодек: H.264
Видео: MPEG-4 AVC/H.264 core 142, 1280x720, 24fps, 1920 kb/s, (0.090bit/pixel)
Аудио RUS: AAC LC 40, 44,1 Khz, 152 Kbps
Общее
Полное имя : ..... \Kuroko no Basuke TV-3 - Баскетбол Куроко ТВ-3 [51 (01) из 76 (26)]\[AniDUB] Kuroko no Basuke TV-3 - Баскетбол Куроко ТВ-3 [51 (01) из 76 (26)] Озвучка JAM .mp4
Формат : MPEG-4
Профиль формата : Base Media
Идентификатор кодека : isom
Размер файла : 375 Мбайт
Продолжительность : 24 м.
Режим общего битрейта : Переменный
Общий поток : 2138 Кбит/сек
Программа кодирования : Lavf55.48.100
Видео
Идентификатор : 1
Формат : AVC
Формат/Информация : Advanced Video Codec
Профиль формата : High@L3.1
Параметр CABAC формата : Да
Параметр ReFrames формата : 4 кадра
Идентификатор кодека : avc1
Идентификатор кодека/Информация : Advanced Video Coding
Продолжительность : 24 м.
Битрейт : 1980 Кбит/сек
Ширина : 1280 пикселей
Высота : 720 пикселей
Соотношение сторон : 16:9
Режим частоты кадров : Постоянный
Частота кадров : 23,976 кадра/сек
Цветовое пространство : YUV
Субдискретизация насыщенности : 4:2:0
Битовая глубина : 8 бит
Тип развёртки : Прогрессивная
Бит/(Пиксели*Кадры) : 0.090
Размер потока : 347 Мбайт (93%)
Библиотека кодирования : x264 core 142
Настройки программы : cabac=1 / ref=3 / deblock=1:0:0 / analyse=0x3:0x113 / me=hex / subme=7 / psy=1 / psy_rd=1.00:0.00 / mixed_ref=1 / me_range=16 / chroma_me=1 / trellis=1 / 8x8dct=1 / cqm=0 / deadzone=21,11 / fast_pskip=1 / chroma_qp_offset=-2 / threads=8 / lookahead_threads=1 / sliced_threads=0 / nr=0 / decimate=1 / interlaced=0 / bluray_compat=0 / constrained_intra=0 / bframes=3 / b_pyramid=2 / b_adapt=1 / b_bias=0 / direct=1 / weightb=1 / open_gop=0 / weightp=2 / keyint=250 / keyint_min=23 / scenecut=40 / intra_refresh=0 / rc_lookahead=40 / rc=2pass / mbtree=1 / bitrate=1980 / ratetol=1.0 / qcomp=0.60 / qpmin=0 / qpmax=69 / qpstep=4 / cplxblur=20.0 / qblur=0.5 / ip_ratio=1.40 / aq=1:1.00
Аудио
Идентификатор : 2
Формат : AAC
Формат/Информация : Advanced Audio Codec
Профиль формата : LC
Идентификатор кодека : 40
Продолжительность : 24 м.
Duration_LastFrame : -15 мс.
Вид битрейта : Переменный
Битрейт : 152 Кбит/сек
Максимальный битрейт : 192 Кбит/сек
Каналы : 2 канала
Расположение каналов : Front: L R
Частота : 44,1 КГц
Метод сжатия : С потерями
Размер потока : 26,6 Мбайт (7%)
1,Следующий эпизод: 20 янв.
Download / Скачать

Хотите скачать бесплатно? Зарегистрируйтесь на сайте (ссылка на регистрацию). Pirat.ca - самый быстрый торрент трекер в рунете!

Как скачивать  ·   Что такое торрент  ·   Рейтинг и ограничения

Андря

8642

Пост 28-Ноя-2017 23:01 (спустя 2 года 10 месяцев)

[Q] 

Полного источника не было: 2 года 8 месяцев

_________________
Като Тешекика
[Профиль]  [ЛС] 
Показать сообщения:    
Ответить на тему

Текущее время: Сегодня 02:30

Часовой пояс: GMT + 4



Вы не можете начинать темы
Вы не можете отвечать на сообщения
Вы не можете редактировать свои сообщения
Вы не можете удалять свои сообщения
Вы не можете голосовать в опросах
Вы не можете прикреплять файлы к сообщениям
Вы не можете скачивать файлы

Майнать ▼