Инициал «Ди» - Стадия вторая / Initial D: Second Stage (Масаки Синъити) [TV] [1-13 из 13] [1999 г.] [спорт, драма] [DVDRip] [720p] [RUS/JAP + SUB(RUS)]

Ответить на тему
 
Автор
Сообщение

Пост 27-Янв-2015 10:00

[Q] 

ave satan

Штурман

Инициал «Ди» - Стадия вторая / Initial D: Second Stage Год выпуска: 1999
Страна: Япония
Жанр: спорт, драма
Продолжительность: ТВ (13 эп.), 25 мин.
Тип: TV
Озвучка: Любительская (одноголосая, закадровая) от Gits
Озвучка 2: Японская
Субтитры: RUS от SibVic
Режиссер: Масаки Синъити
Студия: [/url]
Описание: Мир полон талантливых людей, каждый в чём-то да хорош. Такуми, парень, про жизнь которого рассказывается в этом достаточно увлекательном сериале, одарён талантом водителя. "Водитель со стажем, явно большим его жизни..." - так про него говорят в одном из эпизодов. Изначально его не интересуют уличные гонки - вождение - это его работа. Каждое утро перед школой, он доставляет заказ Тофу в отель на берегу. Но в его тихую мирную жизнь вмешиваются его друзья: Шизоид Ицуки ( права у таких отбирать сразу надо) и возомнивший себя великим стритрейсером Сенпай-неудачник ^_^. И понеслось... по наклонной... то есть Скоростной спуск с горы. Дальше смотрите сами. Рекомендую! Физика и приёмы управления машиной реальные, все термины из настоящего автоспорта. Водить машины может каждый, управлять же ей - это искусство. © GitS
[url=http://www.world-art.ru/animation/animation.php?id=3333]

Источник: DVDRip
Контейнер: MKV
Видео кодек: H.264
Видео: x264 (Hi10p), 960x720, ~2500 Kbps, 23.976 fps
Аудио RUS: AC3 48000Hz, 448 Kbps, 6ch; озвучка (Gits) - внешним файлом
Аудио JAP: AC3 48000Hz, 448 Kbps, 6ch
Формат субтитров: softsub (SSA/ASS)
Общее
Уникальный идентификатор : 176704988168411768117917762886554958944 (0x84F0248EC7125AAA8A4E723BB4D93C60)
Полное имя : x:\xxx\xxx\Initial_D_Second_Stage_(DVDRip_960x720_x264_AC3)\Initial_D_Second_Stage_-_01_(DVDRip_960x720_x264_AC3).mkv
Формат : Matroska
Версия формата : Version 2
Размер файла : 421 Мбайт
Продолжительность : 23 м.
Общий поток : 2523 Кбит/сек
Название фильма : [email protected]
Дата кодирования : UTC 2012-10-23 00:59:20
Программа кодирования : mkvmerge v5.2.0 ('I can't explain') built on Dec 18 2011 18:12:03
Библиотека кодирования : libebml v1.2.3 + libmatroska v1.3.0
Видео
Идентификатор : 1
Формат : AVC
Формат/Информация : Advanced Video Codec
Профиль формата : High [email protected]
Параметр CABAC формата : Да
Параметр ReFrames формата : 4 кадра
Режим смешивания : Header stripping
Идентификатор кодека : V_MPEG4/ISO/AVC
Продолжительность : 23 м.
Битрейт : 2025 Кбит/сек
Ширина : 960 пикселей
Высота : 720 пикселей
Соотношение сторон : 4:3
Частота кадров : 23,976 кадра/сек
Цветовое пространство : YUV
Субдискретизация насыщенности : 4:2:0
Битовая глубина : 10 бит
Тип развёртки : Прогрессивная
Бит/(Пиксели*Кадры) : 0.122
Размер потока : 338 Мбайт (80%)
Библиотека кодирования : x264 core 125 r2208+677+32 26f090e tMod [[email protected]:2:0 X86_64]
Настройки программы : cabac=1 / ref=4 / deblock=1:-1:-1 / analyse=0x3:0x131 / me=esa / subme=10 / psy=1 / fade_compensate=0.00 / psy_rd=1.00:0.00 / mixed_ref=1 / me_range=32 / chroma_me=1 / trellis=2 / 8x8dct=1 / cqm=0 / deadzone=21,11 / fast_pskip=1 / chroma_qp_offset=-2 / threads=9 / lookahead_threads=1 / sliced_threads=0 / nr=0 / decimate=1 / interlaced=0 / bluray_compat=0 / constrained_intra=0 / fgo=0 / bframes=6 / b_pyramid=0 / b_adapt=2 / b_bias=0 / direct=3 / weightb=1 / open_gop=0 / weightp=2 / keyint=250 / keyint_min=23 / scenecut=40 / intra_refresh=0 / rc=crf / mbtree=0 / crf=18.5000 / qcomp=0.60 / qpmin=8 / qpmax=69 / qpstep=4 / ip_ratio=1.40 / pb_ratio=1.30 / aq=1:1.00
Язык : Japanese
Default : Да
Forced : Нет
Аудио
Идентификатор : 2
Формат : AC-3
Формат/Информация : Audio Coding 3
Расширение режима : CM (complete main)
Режим смешивания : Header stripping
Идентификатор кодека : A_AC3
Продолжительность : 23 м.
Вид битрейта : Постоянный
Битрейт : 448 Кбит/сек
Каналы : 6 каналов
Расположение каналов : Front: L C R, Side: L R, LFE
Частота : 48,0 КГц
Битовая глубина : 16 бит
Метод сжатия : С потерями
Размер потока : 74,8 Мбайт (18%)
Язык : Japanese
Default : Да
Forced : Нет
01. Новая угроза
02. Команда Evo приезжает на Акину
03. Страх поражения
04. Неинтересная победа
05. Отсчет до поломки
06. Прощай, 86-я
07. Битва на Акаги. Черный и белый огонь!
08. Эта машина - зверь
09. Рождение новой 86-й
10. Турбо делает вызов
11. Ограничитель убран
12. 86-я против 86-й, битва душ
13. В сезон перемен...
Download / Скачать

Хотите скачать бесплатно? Зарегистрируйтесь на сайте (ссылка на регистрацию). Pirat.ca - самый быстрый торрент трекер в рунете!

Как скачивать  ·   Что такое торрент  ·   Рейтинг и ограничения

Андря

8619

Пост 28-Ноя-2017 23:01 (спустя 2 года 10 месяцев)

[Q] 

Полного источника не было: 1 год 4 месяца

_________________
Като Тешекика
[Профиль]  [ЛС] 
Показать сообщения:    
Ответить на тему

Текущее время: Сегодня 14:05

Часовой пояс: GMT + 4



Вы не можете начинать темы
Вы не можете отвечать на сообщения
Вы не можете редактировать свои сообщения
Вы не можете удалять свои сообщения
Вы не можете голосовать в опросах
Вы не можете прикреплять файлы к сообщениям
Вы не можете скачивать файлы

Майнать ▼