Проект Альфа (Яблочное зёрнышко Альфа) / Appleseed Alpha (Синдзи Арамаки / Shinji Aramaki) [2014 г., Аниме, мультфильм, приключения, HDRip] VO (Xixidok) + Original (Eng)

Ответить на тему
 
Автор
Сообщение

Пост 21-Июл-2014 10:55

[Q] 

LPPI

Гроза морей

-Проект Альфа (Яблочное зёрнышко Альфа) / Appleseed Alpha- Производство: Япония, США, Sola Digital Arts, Stage 6 Films, Lucent Pictures Entertainment
Жанр: Аниме, мультфильм, приключения
Год выпуска: 2014 г.
Продолжительность: 01:33:15
Мировая премьера: 22 июля 2014
Российская премьера: 19 августа 2014, «Columbia/Sony»
Перевод: Любительский (одноголосый, закадровый) [Xixidok]
Оригинальный аудиопоток: английский-Режиссер: Синдзи Арамаки / Shinji Aramaki
Роли озвучивали: Люси Кристиан, Дэвид Матранга, Элизабет Бунч, Вендель Калверт, Адам Гиббс, Крис Хатчинсон, Брина Паленсия, Джош Шелтз-Описание: На основе комиксов, от создателя Призрак в доспехах, молодой солдат Дюнан и киборг Бриарей, пережив третью мировую войну, путешествуют по апокалиптическому Нью-Йорку, в поисках легендарного города Олимпа, будущего оплота человечества.-Сэмпл IMDB КиноПоиск-Качество видео: HDRip
Контейнер: AVI
Видео кодек: XviD
Аудио кодек: MP3 / AC3
Видео: 720x400 (1.80:1), 23.976 fps, XviD build 50 ~1704 kbps avg, 0.25 bit/pixel
Аудио: 44.100 kHz, MPEG Layer 3, 2 ch, ~192.00 kbps avg - RUS
Аудио #2: 48 kHz, AC3 Dolby Digital, 2/0 (L,R) ch, ~192 kbps - ENG
Cубтитры: отсутствуют
General
Complete name : D:\Appleseed.Alpha.2014.L1.HDRip.1400Mb.avi
Format : AVI
Format/Info : Audio Video Interleave
File size : 1.37 GiB
Duration : 1h 33mn
Overall bit rate : 2 103 Kbps
Writing application : VirtualDubMod 1.5.10.3 | www.virtualdub-fr.org || (build 2550/release)
Writing library : VirtualDubMod build 2550/release
Video
ID : 0
Format : MPEG-4 Visual
Format profile : Advanced Simple@L5
Format settings, BVOP : 2
Format settings, QPel : No
Format settings, GMC : No warppoints
Format settings, Matrix : Default (H.263)
Codec ID : XVID
Codec ID/Hint : XviD
Duration : 1h 33mn
Bit rate : 1 705 Kbps
Width : 720 pixels
Height : 400 pixels
Display aspect ratio : 16:9
Frame rate : 23.976 fps
Color space : YUV
Chroma subsampling : 4:2:0
Bit depth : 8 bits
Scan type : Progressive
Compression mode : Lossy
Bits/(Pixel*Frame) : 0.247
Stream size : 1.11 GiB (81%)
Writing library : XviD 1.2.1 (UTC 2008-12-04)
Audio #1
ID : 1
Format : MPEG Audio
Format version : Version 1
Format profile : Layer 3
Codec ID : 55
Codec ID/Hint : MP3
Duration : 1h 33mn
Bit rate mode : Constant
Bit rate : 192 Kbps
Channel(s) : 2 channels
Sampling rate : 44.1 KHz
Compression mode : Lossy
Stream size : 128 MiB (9%)
Alignment : Split accross interleaves
Interleave, duration : 42 ms (1.00 video frame)
Interleave, preload duration : 500 ms
Audio #2
ID : 2
Format : AC-3
Format/Info : Audio Coding 3
Mode extension : CM (complete main)
Format settings, Endianness : Big
Codec ID : 2000
Duration : 1h 33mn
Bit rate mode : Constant
Bit rate : 192 Kbps
Channel(s) : 2 channels
Channel positions : Front: L R
Sampling rate : 48.0 KHz
Bit depth : 16 bits
Compression mode : Lossy
Stream size : 128 MiB (9%)
Alignment : Split accross interleaves
Interleave, duration : 42 ms (1.00 video frame)
Interleave, preload duration : 500 ms
Download / Скачать

Хотите скачать бесплатно? Зарегистрируйтесь на сайте (ссылка на регистрацию). Pirat.ca - самый быстрый торрент трекер в рунете!

Как скачивать  ·   Что такое торрент  ·   Рейтинг и ограничения

zlotosalien

Флибустьер

Пост 21-Июл-2014 17:15 (спустя 6 часов)

[Q] 

Вау! Ни когда не тащил по Аниме но, Яблочное зернышко это не что! И уж ни как не ожидал что выйдет продолжение! Но лучше подождать нормального перевода!
[Профиль]  [ЛС] 

bolin

Флибустьер

Пост 21-Июл-2014 21:28 (спустя 4 часа)

[Q] 

убейте этого переводчика! Раздающему спасибо!
[Профиль]  [ЛС] 

Chkaloff

Лоцман

Пост 21-Июл-2014 21:38 (спустя 10 минут)

[Q] 

Это типо продолжение? "Яблочное зернышко" 2004 года
[Профиль]  [ЛС] 

Naylo

Корсар

Пост 21-Июл-2014 21:45 (спустя 7 минут)

[Q] 

бум смотреть всеми глазами!

_________________
[Профиль]  [ЛС] 

Dinikins

Шкипер

Пост 22-Июл-2014 06:00 (спустя 8 часов)

[Q] 

ПЕРЕВОД.......... Отказать
[Профиль]  [ЛС] 

GLide

Шкипер

116

Пост 22-Июл-2014 11:33 (спустя 5 часов)

[Q] 

561043Это типо продолжение? "Яблочное зернышко" 2004 года
Продолжение это Appleseed: Ex-Machina, это, судя по описанию, предыстория.

_________________
[Профиль]  [ЛС] 

zlotosalien

Флибустьер

Пост 22-Июл-2014 12:03 (спустя 30 минут)

[Q] 

Есть еще подобный мультфильм "Агент Вексилл".
[Профиль]  [ЛС] 

-B1ack-

1906

Пост 27-Июл-2014 20:50 (спустя 5 дней)

[Q] 

ого, помню такое смотрел, надо глянуть продолжение, ром в трюме Пиратка рулит! rum

_________________
[Профиль]  [ЛС] 

Полтос

Гроза морей

Пост 03-Авг-2014 01:31 (спустя 6 дней)

[Q] 

Красиво нарисовано, но смысла нету... Тинейджерам на раз...
На любителя

_________________
Первый закон Прапорщика: Всё что поднимаемо - относительно!)
[Профиль]  [ЛС] 

Alex Yz

Гроза морей

Пост 03-Авг-2014 21:29 (спустя 19 часов)

[Q] 

Спасибо!!
Посмотрим оценим.
[Профиль]  [ЛС] 

zvyagin_da

Пост 04-Авг-2014 08:09 (спустя 10 часов)

[Q] 

буду ждать нормального перевода
[Профиль]  [ЛС] 

saji

Морской Волк

Пост 21-Авг-2014 20:13 (спустя 17 дней)

[Q] 

Отличный мульт. Правда как всегда перемудрил)
[Профиль]  [ЛС] 

zaii

Штурман

Пост 23-Авг-2014 00:18 (спустя 1 день 4 часа)

[Q] 

Это продолжение сериала " Альф"? Почему его на скринах нет ?
[Профиль]  [ЛС] 

Михаил31

Штурман

Пост 23-Авг-2014 21:01 (спустя 20 часов)

[Q] 

Даааа перевод это нечто)
[Профиль]  [ЛС] 

Пост 26-Авг-2014 08:48 (спустя 2 дня 11 часов)

Топик был перенесен из форума Новинки (HD|DVD|BD| TV|SAT|PDTV| - Rips) в форум Аниме (Основной раздел)
LPPI
 

rabbbota

Штурман

Пост 06-Сен-2014 17:26 (спустя 13 дней)

[Q] 

561039убейте этого переводчика! Раздающему спасибо!
Согласен, убить и четвертовать сразу! За мульт спасибо, графика супер и сюжет внятный
[Профиль]  [ЛС] 

zlotosalien

Флибустьер

Пост 14-Сен-2014 21:02 (спустя 8 дней)

[Q] 

571186Это продолжение сериала " Альф"? Почему его на скринах нет ?
ХА-ха-ха!!! Курнул что ли?
[Профиль]  [ЛС] 

Apostle358

Флибустьер

168

Пост 05-Апр-2015 15:22 (спустя 6 месяцев 20 дней)

[Q] 

Ребята, подскажите мультфильмы на подобии Звездный десант: вторжение?
[Профиль]  [ЛС] 

Андря

8641

Пост 28-Ноя-2017 23:02 (спустя 2 года 7 месяцев)

[Q] 

Полного источника не было: 2 месяца 3 дня

_________________
Като Тешекика
[Профиль]  [ЛС] 
Показать сообщения:    
Ответить на тему

Текущее время: Сегодня 08:37

Часовой пояс: GMT + 4



Вы не можете начинать темы
Вы не можете отвечать на сообщения
Вы не можете редактировать свои сообщения
Вы не можете удалять свои сообщения
Вы не можете голосовать в опросах
Вы не можете прикреплять файлы к сообщениям
Вы не можете скачивать файлы

Майнать ▼