Яблочное зернышко (фильм второй) / Appleseed: Ex Machina (Арамаки Синдзи / Aramaki Shinji) [Movie] [2007 г.] [приключения, фантастика, меха] [BDRip] [720p] [RUS]

Ответить на тему
 
Автор
Сообщение

Пост 13-Май-2014 17:28

[Q] 

Miragedf

Штурман

Яблочное зернышко (фильм второй) / Appleseed: Ex Machina Год выпуска: 2007
Страна: Япония
Жанр: приключения, фантастика, меха
Продолжительность: 104 мин
Тип: Movie
Озвучка: Любительская (двухголосая, закадровая)
Субтитры: отсутствуют
Режиссер: Арамаки Синдзи / Aramaki Shinji
Студия: Digital Frontier
Описание: В 2133 году, после глобальной войны в которой погибло более половины населения земли, город Олимп стал маяком надежды в мире разрушений и страданий. Олимп – утопия, которой управляет суперкомпьютер Гайа, а важные политические посты занимают искусственно спроектированные люди-биороиды – которым неведомы эмоции злости или ненависти.
Дюнан Нант – молодая, но профессиональная военная, и Бриарюс – элитный солдат с телом киборга – напарники и возлюбленные, вместе охраняют покой идеального общества будущего.
Старых друзей подвергают нешуточному испытанию, когда напарником Дюнан назначают Терея – экспериментального биороида-воина, созданного на основе ДНК Бриарюса и как две капли воды похожего на его настоящее тело.

Источник: BDRip
Контейнер: MKV
Видео кодек: H.264
Видео: 1280x720 (16:9) H264/AVC 2606.84 kbps 23.976 fps
Аудио RUS: DTS 754.597 kbps 5.1 Surround 48.0 KHz
General
Unique ID : 186922569842133174288948928592979559943 (0x8C9FFA3A6E31D111967B6D34AC020607)
Complete name : D:\Фильмы Видео\Appleseed.Ex.Machina.2007.BDrip.720p.x264.mkv
Format : Matroska
Format version : Version 1
File size : 2.45 GiB
Duration : 1h 44mn
Overall bit rate : 3 365 Kbps
Encoded date : UTC 2002-01-01 18:04:52
Writing application : mkvmerge v2.4.2 ('Oh My God') built on Jan 18 2009 17:30:28
Writing library : libebml v0.7.7 + libmatroska v0.8.1
Video
ID : 1
Format : AVC
Format/Info : Advanced Video Codec
Format profile : High@L3.1
Format settings, CABAC : Yes
Format settings, ReFrames : 5 frames
Codec ID : V_MPEG4/ISO/AVC
Duration : 1h 44mn
Bit rate : 2 600 Kbps
Width : 1 280 pixels
Height : 720 pixels
Display aspect ratio : 16:9
Frame rate mode : Constant
Frame rate : 23.976 fps
Color space : YUV
Chroma subsampling : 4:2:0
Bit depth : 8 bits
Scan type : Progressive
Bits/(Pixel*Frame) : 0.118
Stream size : 1.86 GiB (76%)
Writing library : x264 core 67 r1171M 2c7cb4c
Encoding settings : cabac=1 / ref=5 / deblock=1:-1:0 / analyse=0x3:0x133 / me=umh / subme=6 / psy_rd=1.0:0.0 / mixed_ref=1 / me_range=32 / chroma_me=1 / trellis=2 / 8x8dct=1 / cqm=0 / deadzone=21,11 / chroma_qp_offset=-2 / threads=3 / nr=0 / decimate=0 / mbaff=0 / bframes=16 / b_pyramid=1 / b_adapt=2 / b_bias=0 / direct=3 / wpredb=1 / keyint=250 / keyint_min=25 / scenecut=0 / rc=2pass / bitrate=2600 / ratetol=100.0 / qcomp=0.60 / qpmin=10 / qpmax=51 / qpstep=4 / cplxblur=20.0 / qblur=0.5 / ip_ratio=1.40 / pb_ratio=1.30 / aq=1:1.00
Language : English
Default : Yes
Forced : No
Audio
ID : 2
Format : DTS
Format/Info : Digital Theater Systems
Mode : 16
Format settings, Endianness : Big
Codec ID : A_DTS
Duration : 1h 44mn
Bit rate mode : Constant
Bit rate : 755 Kbps
Channel(s) : 6 channels
Channel positions : Front: L C R, Side: L R, LFE
Sampling rate : 48.0 KHz
Bit depth : 24 bits
Compression mode : Lossy
Stream size : 564 MiB (22%)
Language : Russian
Default : Yes
Forced : No
Download / Скачать

Хотите скачать бесплатно? Зарегистрируйтесь на сайте (ссылка на регистрацию). Pirat.ca - самый быстрый торрент трекер в рунете!

Как скачивать  ·   Что такое торрент  ·   Рейтинг и ограничения

bota_nik

352

Пост 19-Май-2014 01:16 (спустя 5 дней)

[Q] 

534392Complete name : D:\Фильмы Видео\Appleseed.Ex.Machina.2007.BDrip.720p.x264.mkv
Если верить этому, то тут BDRip. Исправил.

_________________
Паранойя - чрезвычайно утешительное состояние ума. Если вам кажется, что против вас что-то замышляют - значит вы что-то да стоите!(с)
[Профиль]  [ЛС] 

Андря

8641

Пост 28-Ноя-2017 23:10 (спустя 3 года 6 месяцев)

[Q] 

Полного источника не было: 2 месяца

_________________
Като Тешекика
[Профиль]  [ЛС] 
Показать сообщения:    
Ответить на тему

Текущее время: Сегодня 04:51

Часовой пояс: GMT + 4



Вы не можете начинать темы
Вы не можете отвечать на сообщения
Вы не можете редактировать свои сообщения
Вы не можете удалять свои сообщения
Вы не можете голосовать в опросах
Вы не можете прикреплять файлы к сообщениям
Вы не можете скачивать файлы

Майнать ▼