Сломанный меч / Broken Blade (Амино Тэцуро) [Movie] [1-6 из 6] [2010 г.] [приключения, фэнтези, меха] [DVDRip] [RUS/JAP + SUB(RUS)]

Ответить на тему
 
Автор
Сообщение

Пост 22-Мар-2014 03:34

[Q] 

JR__13

Морской Волк

Сломанный меч / Broken Blade Год выпуска: 2010
Страна: Япония
Жанр: приключения, фэнтези, меха
Продолжительность: 6 серий по ~50 мин
Тип: Movie
Озвучка: Японская
Озвучка 2: Любительская (одноголосая, закадровая) от persona99
Субтитры: RUS от Команда GMC
Режиссер: Амино Тэцуро
Студия:
Описание: Мир, где больше нет нефти, где люди наделены способностью управлять кварцем и с помощью этого продвигают цивилизацию.
Но средь враждующих государств появляется тот кого величают "неспособным" - человек, который не наделён магией.
И вот однажды ему предстоит оседлать Древнего Голема, заточенного почти под него и остановить ненужное кровопролитие.

Источник: DVDRip
Контейнер: AVI
Видео кодек: XviD
Видео: 720x400 1520Kbps 23fps
Аудио RUS: MP3 192kbps 2ch 48000Hz
Аудио JAP: MP3 192kbps 2ch 48000Hz
Формат субтитров: softsub (SRT)/(ASS)
General
Complete name : D:\Video\mult\Broken Blade\01_Broken_Blade_[GSG](720x400_XviD).rus.jap.avi
Format : AVI
Format/Info : Audio Video Interleave
File size : 703 MiB
Duration : 51mn 16s
Overall bit rate : 1 918 Kbps
Writing application : VirtualDubMod 1.5.10.2 (build 2540/release)
Writing library : VirtualDubMod build 2540/release
Video
ID : 0
Format : MPEG-4 Visual
Format profile : Advanced [email protected]
Format settings, BVOP : Yes
Format settings, QPel : No
Format settings, GMC : No warppoints
Format settings, Matrix : Default (H.263)
Codec ID : XVID
Codec ID/Hint : XviD
Duration : 51mn 16s
Bit rate : 1 520 Kbps
Width : 720 pixels
Height : 400 pixels
Display aspect ratio : 16:9
Frame rate : 23.976 fps
Color space : YUV
Chroma subsampling : 4:2:0
Bit depth : 8 bits
Scan type : Progressive
Compression mode : Lossy
Bits/(Pixel*Frame) : 0.220
Stream size : 557 MiB (79%)
Writing library : XviD 1.2.1 (UTC 2008-12-04)
Audio #1
ID : 1
Format : MPEG Audio
Format version : Version 1
Format profile : Layer 3
Mode : Joint stereo
Codec ID : 55
Codec ID/Hint : MP3
Duration : 51mn 16s
Bit rate mode : Constant
Bit rate : 192 Kbps
Channel count : 2 channels
Sampling rate : 48.0 KHz
Compression mode : Lossy
Stream size : 70.4 MiB (10%)
Alignment : Aligned on interleaves
Interleave, duration : 42 ms (1.00 video frame)
Interleave, preload duration : 504 ms
Audio #2
ID : 2
Format : MPEG Audio
Format version : Version 1
Format profile : Layer 3
Mode : Joint stereo
Mode extension : MS Stereo
Codec ID : 55
Codec ID/Hint : MP3
Duration : 51mn 16s
Bit rate mode : Constant
Bit rate : 192 Kbps
Channel count : 2 channels
Sampling rate : 48.0 KHz
Compression mode : Lossy
Stream size : 70.4 MiB (10%)
Alignment : Aligned on interleaves
Interleave, duration : 42 ms (1.00 video frame)
Interleave, preload duration : 504 ms
Writing library : LAME3.98r
Encoding settings : -m j -V 4 -q 2 -lowpass 18.6 -b 192
Download / Скачать

Хотите скачать бесплатно? Зарегистрируйтесь на сайте (ссылка на регистрацию). Pirat.ca - самый быстрый торрент трекер в рунете!

Как скачивать  ·   Что такое торрент  ·   Рейтинг и ограничения



Последний раз редактировалось: JR__13 (2014-03-22 04:21), всего редактировалось 1 раз

JR__13 ®

Морской Волк

35

Пост 22-Мар-2014 03:49 (спустя 14 минут)

[Q] 

просьба сильно не ругаться- это мой первый релиз... cx

_________________
И целого мира мало!- сказал я доктору...
[Профиль]  [ЛС] 

got70

Легенда

764

Пост 22-Мар-2014 12:47 (спустя 8 часов)

[Q] 

С почином Раздающему респект!

_________________
Добро непременно победит зло!Непременно...Затем поставит на колени,и зверски УБЬЁТ!
[Профиль]  [ЛС] 

JR__13 ®

Морской Волк

35

Пост 13-Апр-2014 11:58 (спустя 21 день)

[Q] 

С 15:04:2014 года мои раздачи буду приостановлены на неопределённый срок, просьба скачавшим, поддержать...

_________________
И целого мира мало!- сказал я доктору...
[Профиль]  [ЛС] 

shalonina

Гроза морей

Пост 22-Июл-2014 19:04 (спустя 3 месяца 9 дней)

[Q] 

Помогу с раздачей
[Профиль]  [ЛС] 

Андря

8619

Пост 28-Ноя-2017 23:10 (спустя 3 года 4 месяца)

[Q] 

Полного источника не было: 1 месяц 29 дней

_________________
Като Тешекика
[Профиль]  [ЛС] 
Показать сообщения:    
Ответить на тему

Текущее время: Сегодня 15:56

Часовой пояс: GMT + 4



Вы не можете начинать темы
Вы не можете отвечать на сообщения
Вы не можете редактировать свои сообщения
Вы не можете удалять свои сообщения
Вы не можете голосовать в опросах
Вы не можете прикреплять файлы к сообщениям
Вы не можете скачивать файлы

Майнать ▼