Контроль над возможностями и деньгами за душой / C: The Money of Soul and Possibility Control (Накамура Кэндзи) [TV] [11 из 11 из 11] [2011 г.] [Приключения, Фэнтези] [DVDRip] [RUS/JAP + SUB(RUS)]

Ответить на тему
 
Автор
Сообщение

Пост 07-Окт-2014 12:29

[Q] 

Dragon-Age1993

Шкипер

Контроль над возможностями и деньгами за душой / C: The Money of Soul and Possibility Control Год выпуска: 2011
Страна: Япония
Жанр: Приключения, Фэнтези
Продолжительность: 00:23:00 мин
Тип: TV
Озвучка: Профессиональная (одноголосая, закадровая) от Persona99
Озвучка 2: Японская
Субтитры: RUS от Persona99
Режиссер: Накамура Кэндзи
Студия: Tatsunoko Production
Описание: Недалёкое будущее. Япония стоит на грани финансового краха, правительство держится благодаря помощи Фонда национального благосостояния. Однако среди рядовых граждан царят бедность, безработица, самоубийства, преступность и отчаяние. 19-летнего Кимимаро после смерти матери и исчезновения отца вырастила его бабушка. Но однажды в его жизни появляется человек, который предлагает ему огромную сумму денег на условиях, что он должен ему будет их вернуть. И с этого момента судьба мальчика резко меняется , как только он входит в мистическую организацию "Финансовый район".- -Источник: DVDRip
Контейнер: AVI
Видео кодек: XviD
Видео: 704x396, 23.976, 1280kbpc
Аудио RUS: AC3 48000Hz 192 kb/s , 2.0
Аудио JAP: AC3 48000Hz 192 kb/s , 2 channels
Формат субтитров: softsub (SSA/ASS)
Общее
Формат : AVI
Формат/Информация : Audio Video Interleave
Размер файла : 275 Мбайт
Продолжительность : 22 м.
Общий поток : 1678 Кбит/сек
Программа кодирования : VirtualDubMod 1.5.10.2 (build 2540/release)
Библиотека кодирования : VirtualDubMod build 2540/release
Видео
Идентификатор : 0
Формат : MPEG-4 Visual
Профиль формата : Advanced [email protected]
Параметр BVOP формата : 2
Параметр QPel формата : Нет
Параметр GMC формата : Без точки перехода
Параметр матрицы формата : Default (H.263)
Идентификатор кодека : XVID
Идентификатор кодека/Подсказка : XviD
Продолжительность : 22 м.
Битрейт : 1280 Кбит/сек
Ширина : 704 пикселя
Высота : 396 пикселей
Соотношение сторон : 16:9
Частота кадров : 23,976 кадра/сек
Цветовое пространство : YUV
Субдискретизация насыщенности : 4:2:0
Битовая глубина : 8 бит
Тип развёртки : Прогрессивная
Метод сжатия : С потерями
Бит/(Пиксели*Кадры) : 0.191
Размер потока : 210 Мбайт (76%)
Библиотека кодирования : XviD 1.2.1 (UTC 2008-12-04)
Аудио #1
Идентификатор : 1
Формат : AC-3
Формат/Информация : Audio Coding 3
Расширение режима : CM (complete main)
Параметр Endianness формата : Big
Идентификатор кодека : 2000
Продолжительность : 22 м.
Вид битрейта : Постоянный
Битрейт : 192 Кбит/сек
Каналы : 2 канала
Расположение каналов : Front: L R
Частота : 48,0 КГц
Битовая глубина : 16 бит
Размер потока : 31,5 Мбайт (11%)
Выравнивание : Разделение по промежуткам
Продолжительность промежутка : 42 мс. (1,00 видеокадр)
Время предзагрузки промежутка : 500 мс.
Аудио #2
Идентификатор : 2
Формат : AC-3
Формат/Информация : Audio Coding 3
Расширение режима : CM (complete main)
Параметр Endianness формата : Big
Идентификатор кодека : 2000
Продолжительность : 22 м.
Вид битрейта : Постоянный
Битрейт : 192 Кбит/сек
Каналы : 2 канала
Расположение каналов : Front: L R
Частота : 48,0 КГц
Битовая глубина : 16 бит
Размер потока : 31,5 Мбайт (11%)
Выравнивание : Разделение по промежуткам
Продолжительность промежутка : 42 мс. (1,00 видеокадр)
Время предзагрузки промежутка : 500 мс.
01. Complication
02. Coincidence
03. Conspiracy
04. Conversion
05. Cultivation
06. Conflict
07. Composition
08. Confidence
09. Collapse
10. Collision
11. Control (Future)
Download / Скачать

Хотите скачать бесплатно? Зарегистрируйтесь на сайте (ссылка на регистрацию). Pirat.ca - самый быстрый торрент трекер в рунете!

Как скачивать  ·   Что такое торрент  ·   Рейтинг и ограничения



Последний раз редактировалось: Dragon-Age1993 (2014-10-08 18:00), всего редактировалось 3 раз(а)

bota_nik

351

Пост 07-Окт-2014 21:53 (спустя 9 часов)

[Q] 

Постер уменьшить до разрешённых 500x320.

_________________
Паранойя - чрезвычайно утешительное состояние ума. Если вам кажется, что против вас что-то замышляют - значит вы что-то да стоите!(с)
[Профиль]  [ЛС] 

TriGun

Морской Волк

Пост 15-Май-2015 03:22 (спустя 7 месяцев 7 дней)

[Q] 

забираю! Пиратка рулит!

_________________
[Профиль]  [ЛС] 

Андря

8619

Пост 28-Ноя-2017 23:11 (спустя 2 года 6 месяцев)

[Q] 

Полного источника не было: 1 год 6 месяцев

_________________
Като Тешекика
[Профиль]  [ЛС] 
Показать сообщения:    
Ответить на тему

Текущее время: Сегодня 15:40

Часовой пояс: GMT + 4



Вы не можете начинать темы
Вы не можете отвечать на сообщения
Вы не можете редактировать свои сообщения
Вы не можете удалять свои сообщения
Вы не можете голосовать в опросах
Вы не можете прикреплять файлы к сообщениям
Вы не можете скачивать файлы

Майнать ▼