Король Лев / The Lion King (Роджер Аллерс / Roger Allers, Роб Минкофф / Rob Minkoff) [1994 г., драма, мюзикл, приключения, семейный, мультфильм, LDRip-AVC] AVO (2 x Гаврилов)

Ответить на тему
 
Автор
Сообщение

Пост 17-Дек-2016 05:01

[Q] 

anton966

Король Лев / The Lion King
«The Circle of Life»
- Год выпуска: 1994
Мировая премьера: 15 июня 1994 США
Дата выхода DVD: 24 апреля 2012, «Уолт Дисней Компани СНГ»
Производство: США
Жанр: драма, мюзикл, приключения, мультфильм
Продолжительность: 01:24:32 (5071.616 s)
Перевод: Авторский (одноголосый, закадровый) Андрей Гаврилов (ранний), Андрей Гаврилов (поздний перевод)
Режиссер: Роджер Аллерс / Roger Allers, Роб Минкофф / Rob Minkoff
Роли озвучивали: Джонатан Тейлор Томас, Мэттью Бродерик, Джеймс Эрл Джонс, Джереми Айронс, Мойра Келли, Никета Калам, Эрни Сабелла, Натан Лейн, Роберт Гийом, Роуэн Эткинсон...
Описание: У величественного Короля-Льва Муфасы рождается наследник по имени Симба. Уже в детстве любознательный малыш становится жертвой интриг своего завистливого дяди Шрама, мечтающего о власти.
Симба познаёт горе утраты, предательство и изгнание, но в конце концов обретает верных друзей и находит любимую. Закалённый испытаниями, он в нелёгкой борьбе отвоёвывает своё законное место в «Круге жизни», осознав, что значит быть настоящим Королём.

Доп. информация: Оригинальная не реставрированная (не перерисованная) версия. DVD собран multmir'ом с французского LD PAL для любителей авторского перевода и ценителей LD качества. Английская дорожка (без реставрации) - оцифровка с LD NTSC (США) с последующей синхронизацией под LD PAL (Франция). Оцифровка делалась с LD проигрывателя Sony MDP-650D на рекордере Panasonic DMR-ES18. Огромное спасибо гуру multmir!!!

Качество видео: LDRip-AVC
Контейнер: MKV
Видео кодек: MPEG4-AVC / H.264
Видео: 696x412@742x412 / 2070 kbps / 25,000 fps / 16:9 / High Profile 4.1
Аудио #1: 48 kHz, AC3 Dolby Digital, 2/0 (L,R) ch, ~192.00 kbps avg - Гаврилов (ранний перевод ~1994-96 г.);
Аудио #2: 48 kHz, AC3 Dolby Digital, 2/0 (L,R) ch, ~192.00 kbps avg - Гаврилов (поздний перевод ~2008-09 г.);
Утерян. Вместо него анализ AVInaptic:
average DRF 19.421008
standard deviation 3.295794
max DRF 33
DRF<8 0 ( 0.000 %)
DRF=8 1 ( 0.001 %)
DRF=9 0 ( 0.000 %)
DRF=10 34 ( 0.027 %)
DRF=11 583 ( 0.460 %)
DRF=12 2198 ( 1.734 %)
DRF=13 3060 ( 2.413 %)
DRF=14 5937 ( 4.683 %) #
DRF=15 6166 ( 4.863 %) #
DRF=16 6934 ( 5.469 %) #
DRF=17 8258 ( 6.513 %) #
DRF=18 11256 ( 8.878 %) ##
DRF=19 14963 ( 11.801 %) ##
DRF=20 17211 ( 13.574 %) ###
DRF=21 16820 ( 13.266 %) ###
DRF=22 13171 ( 10.388 %) ##
DRF=23 8768 ( 6.915 %) #
DRF=24 5166 ( 4.074 %) #
DRF=25 2927 ( 2.309 %)
DRF=26 1681 ( 1.326 %)
DRF=27 938 ( 0.740 %)
DRF=28 458 ( 0.361 %)
DRF=29 152 ( 0.120 %)
DRF=30 56 ( 0.044 %)
DRF=31 23 ( 0.018 %)
DRF=32 23 ( 0.018 %)
DRF=33 7 ( 0.006 %)
DRF>33 0 ( 0.000 %)
P-slices average DRF 18.089583
P-slices std. deviation 3.230829
P-slices max DRF 30
B-slices average DRF 19.924225
B-slices std. deviation 3.174062
B-slices max DRF 33
I-slices average DRF 16.699088
I-slices std. deviation 2.919666
I-slices max DRF 24
Формат : Matroska
Версия формата : Version 4 / Version 2
Размер файла : 1,45 Гбайт
Продолжительность : 1 ч. 24 м.
Общий поток : 2457 Кбит/сек
Название фильма : The Lion King.1994.LDRip-AVC.Gavrilov (Early, Late) -=anton966=-
Дата кодирования : UTC 2015-07-01 18:42:13
Программа кодирования : mkvmerge v8.1.0 ('Psychedelic Postcard') 64bit
Библиотека кодирования : libebml v1.3.1 + libmatroska v1.4.2
Видео
Идентификатор : 1
Формат : AVC
Формат/Информация : Advanced Video Codec
Профиль формата : High@L4.1
Параметр CABAC формата : Да
Параметр ReFrames формата : 9 кадров
Идентификатор кодека : V_MPEG4/ISO/AVC
Продолжительность : 1 ч. 24 м.
Битрейт : 2071 Кбит/сек
Ширина : 696 пикселей
Высота : 412 пикселей
Соотношение сторон : 16:9
Соотношение сторон в оригинале : 16:9
Режим частоты кадров : Постоянный
Частота кадров : 25,000 кадров/сек
Цветовое пространство : YUV
Субдискретизация насыщенности : 4:2:0
Битовая глубина : 8 бит
Тип развёртки : Прогрессивная
Бит/(Пиксели*Кадры) : 0.289
Размер потока : 1,22 Гбайт (84%)
Заголовок : The Lion King.1994.LDRip-AVC
Библиотека кодирования : x264 core 146 r2538kMod 121396c
Настройки программы : cabac=1 / ref=9 / deblock=1:-1:-1 / analyse=0x3:0x133 / me=umh / subme=11 / psy=1 / fade_compensate=0.00 / psy_rd=0.95:0.20 / mixed_ref=1 / me_range=32 / chroma_me=1 / trellis=2 / 8x8dct=1 / cqm=0 / deadzone=21,11 / fast_pskip=1 / chroma_qp_offset=-3 / threads=12 / lookahead_threads=2 / sliced_threads=0 / nr=0 / decimate=1 / interlaced=0 / bluray_compat=0 / constrained_intra=0 / fgo=0 / bframes=8 / b_pyramid=2 / b_adapt=2 / b_bias=0 / direct=1 / weightb=1 / open_gop=0 / weightp=2 / keyint=250 / keyint_min=25 / scenecut=40 / intra_refresh=0 / rc_lookahead=50 / rc=crf / mbtree=0 / crf=17.5000 / qcomp=0.60 / qpmin=0 / qpmax=69 / qpstep=4 / vbv_maxrate=40000 / vbv_bufsize=62500 / crf_max=0.0 / nal_hrd=none / filler=0 / ip_ratio=1.40 / pb_ratio=1.30 / aq=1:1.00
Язык : English
Default : Да
Forced : Нет
Аудио #1
Идентификатор : 2
Формат : AC-3
Формат/Информация : Audio Coding 3
Расширение режима : CM (complete main)
Параметр Endianness формата : Big
Идентификатор кодека : A_AC3
Продолжительность : 1 ч. 24 м.
Вид битрейта : Постоянный
Битрейт : 192 Кбит/сек
Каналы : 2 канала
Расположение каналов : Front: L R
Частота : 48,0 КГц
Частота кадров : 31,250 кадров/сек (1536 spf)
Битовая глубина : 16 бит
Метод сжатия : С потерями
Размер потока : 116 Мбайт (8%)
Заголовок : Gavrilov early
Язык : Russian
Default : Да
Forced : Нет
Аудио #2
Идентификатор : 3
Формат : AC-3
Формат/Информация : Audio Coding 3
Расширение режима : CM (complete main)
Параметр Endianness формата : Big
Идентификатор кодека : A_AC3
Продолжительность : 1 ч. 24 м.
Вид битрейта : Постоянный
Битрейт : 192 Кбит/сек
Каналы : 2 канала
Расположение каналов : Front: L R
Частота : 48,0 КГц
Частота кадров : 31,250 кадров/сек (1536 spf)
Битовая глубина : 16 бит
Метод сжатия : С потерями
Размер потока : 116 Мбайт (8%)
Заголовок : Gavrilov late
Язык : Russian
Default : Нет
Forced : Нет
Меню
00:00:00.000 : en:Chapter 1
00:08:24.400 : en:Chapter 2
00:16:45.040 : en:Chapter 3
00:24:19.120 : en:Chapter 4
00:31:47.920 : en:Chapter 5
00:38:22.000 : en:Chapter 6
00:43:36.400 : en:Chapter 7
00:47:50.360 : en:Chapter 8
00:52:36.440 : en:Chapter 9
00:58:11.000 : en:Chapter 10
01:12:31.160 : en:Chapter 11
01:18:52.280 : en:Chapter 12
Download / Скачать

Хотите скачать бесплатно? Зарегистрируйтесь на сайте (ссылка на регистрацию). Pirat.ca - самый быстрый торрент трекер в рунете!

Как скачивать  ·   Что такое торрент  ·   Рейтинг и ограничения

anton966 ®

10852

Пост 30-Ноя-2017 15:33 (спустя 11 месяцев 13 дней)

[Q] 

Сравнение версий LD vs DVD (Special Edition):


_________________
" ...потому что во многой мудрости много печали; и кто умножает познания, умножает скорбь" ( Еккл 1:17,18)
[Профиль]  [ЛС] 
Показать сообщения:    
Ответить на тему

Текущее время: Сегодня 22:46

Часовой пояс: GMT + 4



Вы не можете начинать темы
Вы не можете отвечать на сообщения
Вы не можете редактировать свои сообщения
Вы не можете удалять свои сообщения
Вы не можете голосовать в опросах
Вы не можете прикреплять файлы к сообщениям
Вы не можете скачивать файлы

Майнать ▼