Эльф / The Elf (Джастин Прайс / Justin Price) [2017 г., ужасы, HDTVRip] DVO

Ответить на тему
 
Автор
Сообщение

Пост 28-Ноя-2017 16:56

[Q] 

vamo

Шкипер

Эльф / The Elf «Все неспокойно…» Производство: США / Pikchure Zero Entertainment
Год выпуска: 2017
Жанр: ужасы
Продолжительность: 01:26:53
Перевод Любительский (двухголосый закадровый) [Синема УС]
Режиссёр: Джастин Прайс / Justin Price
В ролях: Наташа Халаби, Гэбриел Шваленштокер, Ласситер Холмс, Лиза Мэй, Вивиана Озуна, Джозеф Даниэль Эллис, Лес Бест, Маргарета Фратила, Лорен Хаскинс Алонзо, Пэт Тернер
Слоган: «Все неспокойно…»
Описание: В магазине игрушек, унаследованном от деда, Ник находит куклу-эльфа и «список непослушных детей» с именами членов семьи его девушки. Вскоре он понимает, что сам эльф таит в себе огромное зло, которое должно обернуться чередой сверхъестественных убийств для его родных и всех, кто с ним столкнется. Качество видео: HDTVRip
Контейнер: AVI
Видео кодек: XviD
Аудио кодек: AC3
Видео: 720x400 (1.80:1), 29.970 fps, XviD build 67 ~2203 kbps avg, 0.26 bit/pixel
Аудио: 48 kHz, AC3 Dolby Digital, 2/0 (L,R) ch, ~192 kbps
Cубтитры: нет
Формат : AVI
Формат/Информация : Audio Video Interleave
Профиль формата : OpenDML
Размер файла : 1,46 Гбайт
Продолжительность : 1 ч. 26 м.
Общий поток : 2404 Кбит/сек
Программа кодирования : Lavf57.71.100
Видео
Идентификатор : 0
Формат : MPEG-4 Visual
Профиль формата : Advanced [email protected]
Параметр BVOP формата : Нет
Параметр QPel формата : Нет
Параметр GMC формата : Без точки перехода
Параметр матрицы формата : Default (H.263)
Идентификатор кодека : XVID
Идентификатор кодека/Подсказка : XviD
Продолжительность : 1 ч. 26 м.
Битрейт : 2199 Кбит/сек
Ширина : 720 пикселей
Высота : 400 пикселей
Соотношение сторон : 16:9
Частота кадров : 29,970 (30000/1001) кадров/сек
Цветовое пространство : YUV
Субдискретизация насыщенности : 4:2:0
Битовая глубина : 8 бит
Тип развёртки : Прогрессивная
Метод сжатия : С потерями
Бит/(Пиксели*Кадры) : 0.255
Размер потока : 1,33 Гбайт (91%)
Библиотека кодирования : XviD 67
Аудио
Идентификатор : 1
Формат : AC-3
Формат/Информация : Audio Coding 3
Расширение режима : CM (complete main)
Параметр Endianness формата : Big
Идентификатор кодека : 2000
Продолжительность : 1 ч. 26 м.
Вид битрейта : Постоянный
Битрейт : 192 Кбит/сек
Каналы : 2 канала
Расположение каналов : Front: L R
Частота : 48,0 КГц
Частота кадров : 31,250 кадров/сек (1536 spf)
Битовая глубина : 16 бит
Метод сжатия : С потерями
Размер потока : 119 Мбайт (8%)
Выравнивание : Соединение по промежуткам
Продолжительность промежутка : 32 мс. (0,96 видеокадр)
Download / Скачать

Хотите скачать бесплатно? Зарегистрируйтесь на сайте (ссылка на регистрацию). Pirat.ca - самый быстрый торрент трекер в рунете!

Как скачивать  ·   Что такое торрент  ·   Рейтинг и ограничения

maleus

Штурман

Пост 28-Ноя-2017 23:28 (спустя 6 часов)

[Q] 

над третим скрином орнул отдуши.
[Профиль]  [ЛС] 

Мерзавец

Морской Волк

Пост 30-Ноя-2017 03:40 (спустя 1 день 4 часа)

[Q] 

смотреть не буду, памперсы не купил....боюсь этого ужаса! Автору респект!!!
[Профиль]  [ЛС] 

Pirat177

Флибустьер

Пост 01-Дек-2017 18:10 (спустя 1 день 14 часов)

[Q] 

!COOL! Спасибо
[Профиль]  [ЛС] 

Пост 13-Янв-2018 10:32 (спустя 1 месяц 11 дней)

Топик был перенесен из форума Новинки (HD|DVD|BD| TV|SAT|PDTV| - Rips) в форум Фильмы 2010 - 2017 г.г.
aleksey99
 
Показать сообщения:    
Ответить на тему

Текущее время: Сегодня 17:29

Часовой пояс: GMT + 4



Вы не можете начинать темы
Вы не можете отвечать на сообщения
Вы не можете редактировать свои сообщения
Вы не можете удалять свои сообщения
Вы не можете голосовать в опросах
Вы не можете прикреплять файлы к сообщениям
Вы не можете скачивать файлы

Майнать ▼