Новая история Белоснежки / Happily N'Ever After 2 (Стивен Е. Гордон / Steven E. Gordon (as Steve Gordon), Бойд Керклэнд / Boyd Kirkland) [2009 г., мультфильм, фэнтези, комедия, приключения, семейный, HDTVRip] MVO

Ответить на тему
 
Автор
Сообщение

Пост 26-Ноя-2017 20:24

[Q] 

vamo

Шкипер

Новая история Белоснежки / Happily N'Ever After 2 «Еще один укус @ Яблоко» Производство: США, Германия / BAF Berlin Animation Film, Kickstart Productions
Год выпуска: 2009
Жанр: мультфильм, фэнтези, комедия, приключения, семейный
Продолжительность: 01:08:47
Перевод Профессиональный (многоголосый, закадровый)
Режиссёр: Стивен Е. Гордон / Steven E. Gordon (as Steve Gordon), Бойд Керклэнд / Boyd Kirkland
В ролях: Дж. К. Боувис, Келли Бривер, Келли Брюстер, Д. Эрхольц, Синди Робинсон
Описание: Нас ждет встреча с Красной Шапочкой, Белоснежкой, Златовлаской, Шалтаем-Болтаем, Семью Гномами, Злой мачехой и многими-многими другими. Знакомые с детства герои сказок предстанут перед нами совсем в другом облике и кто знает, чем на сей раз закончится эта казалось бы знакомая история. Качество видео: HDTVRip
Контейнер: AVI
Видео кодек: XviD
Аудио кодек: AC3
Видео: 720x400 (1.80:1), 25 fps, XviD build 67 ~2141 kbps avg, 0.30 bit/pixel
Аудио #1: Русский: 48 kHz, AC3 Dolby Digital, 3/2 (L,C,R,l,r) + LFE ch, ~448 kbps (звуковая дорожка с DVD5)
Аудио #2: Английский: 48 kHz, AC3 Dolby Digital, 3/2 (L,C,R,l,r) + LFE ch, ~448 kbps (звуковая дорожка с DVD5)
Cубтитры: нет
Формат : AVI
Формат/Информация : Audio Video Interleave
Профиль формата : OpenDML
Размер файла : 1,46 Гбайт
Продолжительность : 1 ч. 8 м.
Общий поток : 3045 Кбит/сек
Программа кодирования : Lavf57.71.100
Примечание : Rip by Basma4i
Видео
Идентификатор : 0
Формат : MPEG-4 Visual
Профиль формата : Advanced Simple@L5
Параметр BVOP формата : Нет
Параметр QPel формата : Нет
Параметр GMC формата : Без точки перехода
Параметр матрицы формата : Default (H.263)
Идентификатор кодека : XVID
Идентификатор кодека/Подсказка : XviD
Продолжительность : 1 ч. 8 м.
Битрейт : 2130 Кбит/сек
Ширина : 720 пикселей
Высота : 400 пикселей
Соотношение сторон : 16:9
Частота кадров : 25,000 кадров/сек
Цветовое пространство : YUV
Субдискретизация насыщенности : 4:2:0
Битовая глубина : 8 бит
Тип развёртки : Прогрессивная
Метод сжатия : С потерями
Бит/(Пиксели*Кадры) : 0.296
Размер потока : 1,02 Гбайт (70%)
Библиотека кодирования : XviD 67
Аудио #1
Идентификатор : 1
Формат : AC-3
Формат/Информация : Audio Coding 3
Расширение режима : CM (complete main)
Параметр Endianness формата : Big
Идентификатор кодека : 2000
Продолжительность : 1 ч. 8 м.
Вид битрейта : Постоянный
Битрейт : 448 Кбит/сек
Каналы : 6 каналов
Расположение каналов : Front: L C R, Side: L R, LFE
Частота : 48,0 КГц
Частота кадров : 31,250 кадров/сек (1536 spf)
Битовая глубина : 16 бит
Метод сжатия : С потерями
Размер потока : 220 Мбайт (15%)
Выравнивание : Соединение по промежуткам
Продолжительность промежутка : 32 мс. (0,80 видеокадр)
Аудио #2
Идентификатор : 2
Формат : AC-3
Формат/Информация : Audio Coding 3
Расширение режима : CM (complete main)
Параметр Endianness формата : Big
Идентификатор кодека : 2000
Продолжительность : 1 ч. 8 м.
Вид битрейта : Постоянный
Битрейт : 448 Кбит/сек
Каналы : 6 каналов
Расположение каналов : Front: L C R, Side: L R, LFE
Частота : 48,0 КГц
Частота кадров : 31,250 кадров/сек (1536 spf)
Битовая глубина : 16 бит
Метод сжатия : С потерями
Размер потока : 220 Мбайт (15%)
Выравнивание : Соединение по промежуткам
Продолжительность промежутка : 32 мс. (0,80 видеокадр)
Download / Скачать

Хотите скачать бесплатно? Зарегистрируйтесь на сайте (ссылка на регистрацию). Pirat.ca - самый быстрый торрент трекер в рунете!

Как скачивать  ·   Что такое торрент  ·   Рейтинг и ограничения

Андря

8640

Пост 27-Ноя-2017 00:43 (спустя 4 часа)

[Q] 

встаньте на раздачу

_________________
Като Тешекика
[Профиль]  [ЛС] 

Pirat177

Флибустьер

Пост 01-Дек-2017 18:40 (спустя 4 дня)

[Q] 

!COOL! Одобрямс! Извините... Не качаю племяшка уже выросла...
[Профиль]  [ЛС] 
Показать сообщения:    
Ответить на тему

Текущее время: Сегодня 11:24

Часовой пояс: GMT + 4



Вы не можете начинать темы
Вы не можете отвечать на сообщения
Вы не можете редактировать свои сообщения
Вы не можете удалять свои сообщения
Вы не можете голосовать в опросах
Вы не можете прикреплять файлы к сообщениям
Вы не можете скачивать файлы

Майнать ▼