Удача Логана / Logan Lucky (Стивен Содерберг / Steven Soderbergh) [2017 г., комедия, криминал, HDRip] Dub [Чистый звук]

Ответить на тему
 
Автор
Сообщение

Пост 20-Ноя-2017 21:34

[Q] 

ara1205

-Удача Логана / Logan Lucky-- Производство: США
Год выпуска: 2017 г.
Жанр: комедия, криминал
Продолжительность: 02:00:22
Мировая премьера: 7 августа 2017
Российская премьера: 7 сентября 2017
Перевод: Профессиональный (полное дублирование) [Чистый звук]-Режиссёр: Стивен Содерберг / Steven Soderbergh-В ролях: Дэниэл Крэйг, Ченнинг Татум, Адам Драйвер, Сет МакФарлейн, Себастьян Стэн, Кэти Холмс, Хилари Суэнк, Райли Кио, Фаррах Маккензи, Джим О Хейр-Описание: Уволили с работы? Подготовь самое дерзкое ограбление в истории! Джимми Логан молниеносно подбирает команду «специалистов», способных на такую аферу, и надеется выйти сухим из воды. Будь как Логан!- -Качество видео: HDRip
Контейнер: AVI
Видео кодек: XviD
Аудио кодек: AC3
Видео: 720х304, 23,976 fps, 1429 Kbps, 0.272 bits/pixel
Аудио: 48 kHz, AC3 Dolby Digital, 2 ch, 192 Kbps
Cубтитры: отсутствуют-
Общее
Полное имя : C:\Users\Admin\Pictures\Удача Логана\Logan.lucky.2017.D.HDRip.14OOMB.avi
Формат : AVI
Формат/Информация : Audio Video Interleave
Размер файла : 1,37 Гбайт
Продолжительность : 2 ч. 0 м.
Общий поток : 1630 Кбит/сек
Программа кодирования : VirtualDubMod 1.5.10.2 (build 2540/release)
Библиотека кодирования : VirtualDubMod build 2540/release
Видео
Идентификатор : 0
Формат : MPEG-4 Visual
Профиль формата : Advanced Simple@L5
Параметр BVOP формата : 2
Параметр QPel формата : Нет
Параметр GMC формата : Без точки перехода
Параметр матрицы формата : Default (MPEG)
Идентификатор кодека : XVID
Идентификатор кодека/Подсказка : XviD
Продолжительность : 2 ч. 0 м.
Битрейт : 1429 Кбит/сек
Ширина : 720 пикселей
Высота : 304 пикселя
Соотношение сторон : 2,35:1
Частота кадров : 23,976 кадра/сек
Цветовое пространство : YUV
Субдискретизация насыщенности : 4:2:0
Битовая глубина : 8 бит
Тип развёртки : Прогрессивная
Метод сжатия : С потерями
Бит/(Пиксели*Кадры) : 0.272
Размер потока : 1,20 Гбайт (88%)
Библиотека кодирования : XviD 1.2.1 (UTC 2008-12-04)
Аудио
Идентификатор : 1
Формат : AC-3
Формат/Информация : Audio Coding 3
Расширение режима : CM (complete main)
Параметр Endianness формата : Big
Идентификатор кодека : 2000
Продолжительность : 2 ч. 0 м.
Вид битрейта : Постоянный
Битрейт : 192 Кбит/сек
Каналы : 2 канала
Расположение каналов : Front: L R
Частота : 48,0 КГц
Битовая глубина : 16 бит
Метод сжатия : С потерями
Размер потока : 165 Мбайт (12%)
Выравнивание : Разделение по промежуткам
Продолжительность промежутка : 42 мс. (1,00 видеокадр)
Время предзагрузки промежутка : 500 мс.
-
-ВНИМАНИЕ!!! В ВИДЕОФАЙЛЕ ПРИСУТСТВУЕТ РЕКЛАМА!!!-
Download / Скачать

Хотите скачать бесплатно? Зарегистрируйтесь на сайте (ссылка на регистрацию). Pirat.ca - самый быстрый торрент трекер в рунете!

Как скачивать  ·   Что такое торрент  ·   Рейтинг и ограничения

Кристина119

Гроза морей

Пост 21-Ноя-2017 00:10 (спустя 2 часа 36 минут)

[Q] 

Спасибо Лови бочку
[Профиль]  [ЛС] 

clark

Флибустьер

Пост 21-Ноя-2017 00:33 (спустя 22 минуты)

[Q] 

спасибо посмотрим

_________________
Последним смеётся тот, кто стреляет первым.
[Профиль]  [ЛС] 

Depressor

Флибустьер

Пост 22-Ноя-2017 03:18 (спустя 1 день 2 часа)

[Q] 

хороший фильм, актеры тоже
не 11 друзей Оушена, но на текущем застое нормальных фильмов на эту тематику - вполне

_________________
[Профиль]  [ЛС] 

zvernight

Гроза морей

Пост 24-Ноя-2017 20:36 (спустя 2 дня 17 часов)

[Q] 

забираю, Лови бочку
[Профиль]  [ЛС] 

AirPower

Корсар

Пост 25-Ноя-2017 00:11 (спустя 3 часа)

[Q] 

неплохой фильм, спасибо
[Профиль]  [ЛС] 

Лукинофф2

Шкипер

Пост 26-Ноя-2017 16:55 (спустя 1 день 16 часов)

[Q] 

смешной
можно смотреть смело
[Профиль]  [ЛС] 

lightmaster

Гроза морей

Пост 02-Дек-2017 21:08 (спустя 6 дней)

[Q] 

Артисты ты то какие, надо срочно глянуть... Раздающему респект!
[Профиль]  [ЛС] 

Sakoru

Корсар

Пост 03-Дек-2017 18:06 (спустя 20 часов)

[Q] 

как фильм? стоит смотреть?

_________________
[Профиль]  [ЛС] 

Пост 13-Янв-2018 10:32 (спустя 1 месяц 9 дней)

Топик был перенесен из форума Новинки (HD|DVD|BD| TV|SAT|PDTV| - Rips) в форум Фильмы 2010 - 2017 г.г.
aleksey99
 
Показать сообщения:    
Ответить на тему

Текущее время: Сегодня 23:33

Часовой пояс: GMT + 4



Вы не можете начинать темы
Вы не можете отвечать на сообщения
Вы не можете редактировать свои сообщения
Вы не можете удалять свои сообщения
Вы не можете голосовать в опросах
Вы не можете прикреплять файлы к сообщениям
Вы не можете скачивать файлы

Майнать ▼