Голем / The Limehouse Golem (Хуан Карлос Медина / Juan Carlos Medina) [2016 г., ужасы, триллер, BDRip] Dub [iTunes]

Ответить на тему
 
Автор
Сообщение

Пост 23-Ноя-2017 14:37

[Q] 

ara1205

-Голем / The Limehouse Golem-- Производство: Великобритания
Год выпуска: 2016 г.
Жанр: ужасы, триллер
Продолжительность: 01:48:37
Мировая премьера: 10 сентября 2016
Российская премьера: 19 октября 2017
Перевод: Профессиональный (полное дублирование) [iTunes]-Режиссёр: Хуан Карлос Медина / Juan Carlos Medina-В ролях: Оливия Кук, Билл Найи, Эдди Марсан, Дуглас Бут, Мария Вальверде, Сэм Рид, Дэниэл Мейс, Адам Браун, Генри Гудман, Морган Уоткинс-Описание: Викторианский Лондон, 1880. Опасный район Лаймхаус потрясает серия жестоких убийств. Напуганные до смерти жители полагают, что в этих чудовищных преступлениях повинен голем — древнее мифологическое существо, оживляемое при помощи черной магии. Расследовать загадочные убийства назначают опытного детектива, инспектора Килдэра.- -Качество видео: BDRip
Контейнер: AVI
Видео кодек: XviD
Аудио кодек: AC3
Видео: 720х304, 24 fps, 1468 Kbps, 0.279 bits/pixel
Аудио: 48 kHz, AC3 Dolby Digital, 6 ch, 384 Kbps
Cубтитры: отсутствуют-
Общее
Полное имя : C:\Users\Admin\Pictures\Голем\Golem.2016.BDRip.[pirat.ca].avi
Формат : AVI
Формат/Информация : Audio Video Interleave
Размер файла : 1,41 Гбайт
Продолжительность : 1 ч. 48 м.
Общий поток : 1861 Кбит/сек
Программа кодирования : VirtualDubMod 1.5.10.2 (build 2540/release)
Библиотека кодирования : VirtualDubMod build 2540/release
Видео
Идентификатор : 0
Формат : MPEG-4 Visual
Профиль формата : Advanced Simple@L5
Параметр BVOP формата : 1
Параметр QPel формата : Нет
Параметр GMC формата : Без точки перехода
Параметр матрицы формата : Выборочная
Идентификатор кодека : XVID
Идентификатор кодека/Подсказка : XviD
Продолжительность : 1 ч. 48 м.
Битрейт : 1468 Кбит/сек
Ширина : 720 пикселей
Высота : 304 пикселя
Соотношение сторон : 2,35:1
Частота кадров : 24,000 кадра/сек
Цветовое пространство : YUV
Субдискретизация насыщенности : 4:2:0
Битовая глубина : 8 бит
Тип развёртки : Прогрессивная
Метод сжатия : С потерями
Бит/(Пиксели*Кадры) : 0.279
Размер потока : 1,11 Гбайт (79%)
Библиотека кодирования : XviD 73
Аудио
Идентификатор : 1
Формат : AC-3
Формат/Информация : Audio Coding 3
Расширение режима : CM (complete main)
Параметр Endianness формата : Big
Идентификатор кодека : 2000
Продолжительность : 1 ч. 48 м.
Вид битрейта : Постоянный
Битрейт : 384 Кбит/сек
Каналы : 6 каналов
Расположение каналов : Front: L C R, Side: L R, LFE
Частота : 48,0 КГц
Битовая глубина : 16 бит
Метод сжатия : С потерями
Размер потока : 298 Мбайт (21%)
Выравнивание : Разделение по промежуткам
Продолжительность промежутка : 42 мс. (1,00 видеокадр)
Время предзагрузки промежутка : 500 мс.
-
-
Download / Скачать

Хотите скачать бесплатно? Зарегистрируйтесь на сайте (ссылка на регистрацию). Pirat.ca - самый быстрый торрент трекер в рунете!

Как скачивать  ·   Что такое торрент  ·   Рейтинг и ограничения

hevard

Гроза морей

2163

Пост 01-Дек-2017 23:09 (спустя 8 дней)

[Q] 

Посмотрим, отзывы хорошие... "Ворон" мне понравился, да и "Видок" тоже не плох...

_________________
-Я старый пират и не знаю слов лицензионного соглашения...
[Профиль]  [ЛС] 

tyulen29

Шкипер

Пост 03-Дек-2017 11:14 (спустя 1 день 12 часов)

[Q] 

Скучный и нудный.меня хватило минут на 40
[Профиль]  [ЛС] 

mazadrive

Шкипер

Пост 03-Дек-2017 15:51 (спустя 4 часа)

[Q] 

А мне понравился.
[Профиль]  [ЛС] 

hevard

Гроза морей

2163

Пост 03-Дек-2017 21:38 (спустя 5 часов)

[Q] 

Фильм смотрибельный, но не "АХ!"... Досматриваешь уже, только потому, что хочется увидеть финал.
В итоге появляется один вопрос - "Зачем убийца это делал..?"
И, таки да, совсем не "ужасы", скорее "детектив, триллер"...

_________________
-Я старый пират и не знаю слов лицензионного соглашения...
[Профиль]  [ЛС] 

LEXo

Штурман

Пост 06-Дек-2017 09:10 (спустя 2 дня 11 часов)

[Q] 

"Зачем убийца это делал..?" Во славу сатане... Фильм гениальный, но не для средних.

_________________
Волка ноги кормят.
[Профиль]  [ЛС] 

raul kurochka

Флибустьер

Пост 08-Дек-2017 22:15 (спустя 2 дня 13 часов)

[Q] 

а как полит-корректно обошли в описании тот факт, что "ГОЛЕМ" из Еврейской мифологии. "Демон Мести), которого обиженный или оскорбленный делал из земли и глины (в определенных случаях которую брали с могилы убиенного родственника)
~в каком то из первых сезонов X-files была про него серия)

_________________
...ЧО ТАКОЙ СЕРЬЕЗНЫЙ???
[Профиль]  [ЛС] 

hevard

Гроза морей

2163

Пост 10-Дек-2017 01:15 (спустя 1 день 3 часа)

[Q] 

813975"Зачем убийца это делал..?" Во славу сатане... Фильм гениальный, но не для средних.
Как то о СОТОНЕ ни слова... Скорее шиза...хотя вменяемость присутствует.
Это даже не Чикатило, тот хоть удовольствие получал... а здесь тупое действо.
О гениальности фильма вообще вопрос не стоит...

_________________
-Я старый пират и не знаю слов лицензионного соглашения...
[Профиль]  [ЛС] 

ku_vol

Корсар

Пост 25-Дек-2017 18:12 (спустя 15 дней)

[Q] 

Хороший фильм о старом добром Лондоне, смотрится увлекательно, могли бы добавить в него больше ужаса, но не добавили, видимо для большего круга зрителей Автору респект!!!
[Профиль]  [ЛС] 

RomanTroizk

Корсар

Пост 26-Дек-2017 22:00 (спустя 1 день 3 часа)

[Q] 

Ужасами здесь и не пахнет. Фильм не плохо, ну и не супер. Три раза под него засыпал)) Разок стоит глянуть. Автору респект!!!
[Профиль]  [ЛС] 

Пост 13-Янв-2018 10:35 (спустя 17 дней)

Топик был перенесен из форума Новинки (HD|DVD|BD| TV|SAT|PDTV| - Rips) в форум Фильмы 2010 - 2017 г.г.
aleksey99
 
Показать сообщения:    
Ответить на тему

Текущее время: Сегодня 03:15

Часовой пояс: GMT + 4



Вы не можете начинать темы
Вы не можете отвечать на сообщения
Вы не можете редактировать свои сообщения
Вы не можете удалять свои сообщения
Вы не можете голосовать в опросах
Вы не можете прикреплять файлы к сообщениям
Вы не можете скачивать файлы

Майнать ▼