Сделано в Америке / American Made (Даг Лайман / Doug Liman) [2017 г., боевик, триллер, драма, комедия, криминал, биография, история, BDRip] Dub [iTunes]

Ответить на тему
 
Автор
Сообщение

Пост 07-Дек-2017 20:18

[Q] 

ara1205

-Сделано в Америке / American Made-- Производство: США
Год выпуска: 2017 г.
Жанр: боевик, триллер, драма, комедия, криминал, биография, история
Продолжительность: 01:54:58
Мировая премьера: 18 августа 2017
Российская премьера: 12 октября 2017
Перевод: Профессиональный (полное дублирование) [iTunes]-Режиссёр: Даг Лайман / Doug Liman-В ролях: Том Круз, Донал Глисон, Сара Райт, Джесси Племонс, Калеб Лэндри Джонс, Лола Кёрк, Джейма Мейс, Алехандро Эдда, Бенито Мартинес, Э. Роджер Митчелл-Описание: Он был самым юным пилотом Боинга 747 в США, а уже через несколько лет стал одним из богатейших людей в Америке. Его стиль жизни был столь же экстремальным, как и его бизнес. Закрытые приемы, роскошные блондинки, крутые тачки и рисковые сделки. Он обладал талантом делать деньги из воздуха.- -Качество видео: BDRip
Контейнер: AVI
Видео кодек: XviD
Аудио кодек: AC3
Видео: 704х384, 23,976 fps, 1361 Kbps, 0.210 bits/pixel
Аудио: 48 kHz, AC3 Dolby Digital, 6 ch, 384 Kbps
Cубтитры: отсутствуют-
Общее
Полное имя : C:\Users\Admin\Pictures\Сделано в Америке\Sdelano.V.Amerike.2017.BDRip.[pirat.ca].avi
Формат : AVI
Формат/Информация : Audio Video Interleave
Размер файла : 1,41 Гбайт
Продолжительность : 1 ч. 54 м.
Общий поток : 1754 Кбит/сек
Программа кодирования : VirtualDubMod 1.5.10.2 (build 2540/release)
Библиотека кодирования : VirtualDubMod build 2540/release
Видео
Идентификатор : 0
Формат : MPEG-4 Visual
Профиль формата : Advanced [email protected]
Параметр BVOP формата : 1
Параметр QPel формата : Нет
Параметр GMC формата : Без точки перехода
Параметр матрицы формата : Выборочная
Идентификатор кодека : XVID
Идентификатор кодека/Подсказка : XviD
Продолжительность : 1 ч. 54 м.
Битрейт : 1361 Кбит/сек
Ширина : 704 пикселя
Высота : 384 пикселя
Соотношение сторон : 1,85:1
Частота кадров : 23,976 кадра/сек
Цветовое пространство : YUV
Субдискретизация насыщенности : 4:2:0
Битовая глубина : 8 бит
Тип развёртки : Прогрессивная
Метод сжатия : С потерями
Бит/(Пиксели*Кадры) : 0.210
Размер потока : 1,09 Гбайт (78%)
Библиотека кодирования : XviD 73
Аудио
Идентификатор : 1
Формат : AC-3
Формат/Информация : Audio Coding 3
Расширение режима : CM (complete main)
Параметр Endianness формата : Big
Идентификатор кодека : 2000
Продолжительность : 1 ч. 54 м.
Вид битрейта : Постоянный
Битрейт : 384 Кбит/сек
Каналы : 6 каналов
Расположение каналов : Front: L C R, Side: L R, LFE
Частота : 48,0 КГц
Битовая глубина : 16 бит
Метод сжатия : С потерями
Размер потока : 316 Мбайт (22%)
Выравнивание : Разделение по промежуткам
Продолжительность промежутка : 42 мс. (1,00 видеокадр)
Время предзагрузки промежутка : 500 мс.
-
-
Download / Скачать

Хотите скачать бесплатно? Зарегистрируйтесь на сайте (ссылка на регистрацию). Pirat.ca - самый быстрый торрент трекер в рунете!

Как скачивать  ·   Что такое торрент  ·   Рейтинг и ограничения

clark

Флибустьер

Пост 07-Дек-2017 23:44 (спустя 3 часа)

[Q] 

спасибо посмотрим

_________________
Последним смеётся тот, кто стреляет первым.
[Профиль]  [ЛС] 

alersander

Корсар

Пост 08-Дек-2017 01:24 (спустя 1 час 39 минут)

[Q] 

присоединяюсь Лови бочку
[Профиль]  [ЛС] 

Pana

Корсар

Пост 08-Дек-2017 01:57 (спустя 33 минуты)

[Q] 

Спасибо!!! Лови бочку
[Профиль]  [ЛС] 

Кристина119

Гроза морей

Пост 08-Дек-2017 10:27 (спустя 8 часов)

[Q] 

Что там новенького от Пита... Лови бочку
[Профиль]  [ЛС] 

veniamin

Лоцман

Пост 08-Дек-2017 11:56 (спустя 1 час 28 минут)

[Q] 

814115Что там новенького от Пита... Лови бочку
Какого Пита....?
[Профиль]  [ЛС] 

shelby290

Флибустьер

Пост 08-Дек-2017 22:00 (спустя 10 часов)

[Q] 

Интерестный фильм!
Спасибо!
[Профиль]  [ЛС] 

жека.ру

Шкипер

90

Пост 08-Дек-2017 23:16 (спустя 1 час 15 минут)

[Q] 

Отказать, из за названия. Даешь- Сделано в России !!! Зуб даю...
[Профиль]  [ЛС] 

Madwarg

Корсар

Пост 08-Дек-2017 23:49 (спустя 33 минуты)

[Q] 

Благодарю Лови бочку
[Профиль]  [ЛС] 

ketzer

Корсар

Пост 16-Дек-2017 03:00 (спустя 7 дней)

[Q] 

Фильм великолепен!
[Профиль]  [ЛС] 

AirPower

Корсар

Пост 17-Дек-2017 16:29 (спустя 1 день 13 часов)

[Q] 

Есть сюжет, хорошие актеры.
Рекомендую посмотреть.
[Профиль]  [ЛС] 

Пост 13-Янв-2018 10:35 (спустя 26 дней)

Топик был перенесен из форума Новинки (HD|DVD|BD| TV|SAT|PDTV| - Rips) в форум Фильмы 2010 - 2017 г.г.
aleksey99
 
Показать сообщения:    
Ответить на тему

Текущее время: Сегодня 06:31

Часовой пояс: GMT + 4



Вы не можете начинать темы
Вы не можете отвечать на сообщения
Вы не можете редактировать свои сообщения
Вы не можете удалять свои сообщения
Вы не можете голосовать в опросах
Вы не можете прикреплять файлы к сообщениям
Вы не можете скачивать файлы

Майнать ▼