Вспомнить всё: Похищение / Возвращение / The Recall (Мауро Боррелли / Mauro Borrelli) [2017 г., ужасы, фантастика, триллер, BDRip] MVO

Ответить на тему
 
Автор
Сообщение

Пост 23-Ноя-2017 21:47

[Q] 

ara1205

-Вспомнить всё: Похищение / Возвращение / The Recall-- Производство: Канада
Год выпуска: 2017 г.
Жанр: ужасы, фантастика, триллер
Продолжительность: 01:31:07
Перевод: Любительский (многоголосый, закадровый) [Синема УС]-Режиссёр: Мауро Боррелли / Mauro Borrelli-В ролях: АрДжей Митти, Уэсли Снайпс, Джедидайя Гудакр, Нико Пепадж, Грэхэм Шилз, Виселос Реон Шеннон, Элиша Криис, Лаура Билгери-Описание: Пятеро друзей собираются отдохнуть в уединённом доме у озера, и как раз в это время на Землю нападают инопланетные захватчики. И цели у них совсем не гуманные. К счастью, в лесу обнаруживается охотник, который так просто не даст человечество в обиду.- -Качество видео: BDRip
Контейнер: AVI
Видео кодек: XviD
Аудио кодек: AC3
Видео: 720х304, 23,976 fps, 2089 Kbps, 0.398 bits/pixel
Аудио: 48 kHz, AC3 Dolby Digital, 2 ch, 192 Kbps
Cубтитры: отсутствуют-
Общее
Полное имя : C:\Users\Admin\Pictures\Вспомнить всё\Вспомнить всё. Похищение (Возвращение).avi
Формат : AVI
Формат/Информация : Audio Video Interleave
Размер файла : 1,46 Гбайт
Продолжительность : 1 ч. 31 м.
Общий поток : 2290 Кбит/сек
Программа кодирования : VirtualDubMod 1.5.10.3 (build 2550/release)
Библиотека кодирования : VirtualDubMod build 2550/release
Видео
Идентификатор : 0
Формат : MPEG-4 Visual
Профиль формата : Advanced [email protected]
Параметр BVOP формата : 1
Параметр QPel формата : Нет
Параметр GMC формата : Без точки перехода
Параметр матрицы формата : Выборочная
Идентификатор кодека : XVID
Идентификатор кодека/Подсказка : XviD
Продолжительность : 1 ч. 31 м.
Битрейт : 2089 Кбит/сек
Ширина : 720 пикселей
Высота : 304 пикселя
Соотношение сторон : 2,35:1
Частота кадров : 23,976 кадра/сек
Цветовое пространство : YUV
Субдискретизация насыщенности : 4:2:0
Битовая глубина : 8 бит
Тип развёртки : Прогрессивная
Метод сжатия : С потерями
Бит/(Пиксели*Кадры) : 0.398
Размер потока : 1,33 Гбайт (91%)
Библиотека кодирования : XviD 67
Аудио
Идентификатор : 1
Формат : AC-3
Формат/Информация : Audio Coding 3
Расширение режима : CM (complete main)
Параметр Endianness формата : Big
Идентификатор кодека : 2000
Продолжительность : 1 ч. 31 м.
Вид битрейта : Постоянный
Битрейт : 192 Кбит/сек
Каналы : 2 канала
Расположение каналов : Front: L R
Частота : 48,0 КГц
Битовая глубина : 16 бит
Метод сжатия : С потерями
Размер потока : 125 Мбайт (8%)
Выравнивание : Разделение по промежуткам
Продолжительность промежутка : 42 мс. (1,00 видеокадр)
Время предзагрузки промежутка : 500 мс.
-
-
Download / Скачать

Хотите скачать бесплатно? Зарегистрируйтесь на сайте (ссылка на регистрацию). Pirat.ca - самый быстрый торрент трекер в рунете!

Как скачивать  ·   Что такое торрент  ·   Рейтинг и ограничения

Кристина119

Гроза морей

Пост 23-Ноя-2017 23:59 (спустя 2 часа 12 минут)

[Q] 

Старина Блэйд) Лови бочку
[Профиль]  [ЛС] 

bo4kov

Гроза морей

570

Пост 24-Ноя-2017 00:15 (спустя 15 минут)

[Q] 

Посмотрим

_________________
[Профиль]  [ЛС] 

Андря

8644

Пост 24-Ноя-2017 00:54 (спустя 39 минут)

[Q] 

Он ещё играет роли? )))

_________________
Като Тешекика
[Профиль]  [ЛС] 

Амангельды

38153

Пост 24-Ноя-2017 01:51 (спустя 57 минут)

[Q] 

Старикашку Снайпса чморили за неуплату налогов.
Потому на столько лет выпал из кинематографа...
Видать, заплатил наконец кровопийцам...
Хер нагнёшь героя!!!

_________________

Товарищ, верь, пройдет она,
Так называемая гласность.
И вот тогда госбезопасность
Припомнит ваши имена
[Профиль]  [ЛС] 

jofrei53

Флибустьер

Пост 24-Ноя-2017 10:52 (спустя 9 часов)

[Q] 

Спасибо! Заинтересовало, поглядим..... Спасибо!!! Автору респект!!!
[Профиль]  [ЛС] 

rampage-2

Морской Волк

Пост 24-Ноя-2017 12:54 (спустя 2 часа 1 минута)

[Q] 

Я так понимаю дела у Уэсли Снайпса не очень, раз в таких фильмах снимается, прочитал описание, посмотрел рейтинг в КиноПоиске, думаю смотреть не буду, если я не прав, отпишите.
Добавлено спустя 1 минута 50 секунд:
Забыл!
Автору респект!!!
[Профиль]  [ЛС] 

kinstintin

Легенда

Пост 24-Ноя-2017 22:14 (спустя 9 часов)

[Q] 

Спасибо!!!
посмотрим...
[Профиль]  [ЛС] 

Роман Чистов

Шкипер

Пост 25-Ноя-2017 20:28 (спустя 22 часа)

[Q] 

Фильм ни о чем. Игры нет. Логики нет. Спецэффекты на уровне 80-х гг. Ужасов нет. Зло и добро смешаны в одну кучу (как у помоечного фэнтезиписца Перумова). Фантастика тупая как сортирный вантуз. Снайпс здесь - "свадебный генерал". Удалил.
[Профиль]  [ЛС] 

lightmaster

Гроза морей

Пост 02-Дек-2017 21:15 (спустя 7 дней)

[Q] 

Ну думаю-посмотрю сюдни, но чёт тормозну пока...
[Профиль]  [ЛС] 

unitel1

Шкипер

Пост 03-Дек-2017 20:52 (спустя 23 часа)

[Q] 

Лови бочку Спасибо! Посмотрим.
[Профиль]  [ЛС] 

avelinio

Штурман

Пост 04-Дек-2017 20:37 (спустя 23 часа)

[Q] 

Уже Шнапса достали... Остальные все скомпрометировали себя за шипание женских сисек))
[Профиль]  [ЛС] 

kosmo72rus

Корсар

Пост 06-Дек-2017 22:37 (спустя 2 дня 1 час)

[Q] 

813903Уже Шнапса достали... Остальные все скомпрометировали себя за шипание женских сисек))
Даже если и было чего, его не обвинят в домогательствах - это будет расценено как расизм bk

_________________
[Профиль]  [ЛС] 

raul kurochka

Флибустьер

Пост 08-Дек-2017 22:04 (спустя 1 день 23 часа)

[Q] 

812648...посмотрел рейтинг в КиноПоиске, думаю смотреть не буду, если я не прав, отпишите.
Не говорю, что Вы не правы, но от себя так скажу: довериться рейтингу киноПоиска - все равно, что довериться на удачу и вступить в интимную связь с падшей женщиной без контрацепции)))
Проверить мою теорию проще простого. Достаточно выбрать пятерку любимых фильмов( у которых по вашему мнению занижен рейтинг), а потом почитать с десяток рецензий... И Вы поймете "КТО" эти рейтинги занижает)
(как правило псевдо-интеллектуалы, и безвкусные неудачники с необоснованно раздутым ЧСВ и отсутствием умения грамотно аргументировать и излагать свои мысли и выводы)
Смотрите лучше имена режиссеров и сценаристов, а так же их фильмографию - так надежней.
aa

_________________
...ЧО ТАКОЙ СЕРЬЕЗНЫЙ???
[Профиль]  [ЛС] 

realleo

Корсар

Пост 15-Дек-2017 02:45 (спустя 6 дней)

[Q] 

кризис везде, что тут скажешь еще :)
[Профиль]  [ЛС] 

Пост 13-Янв-2018 10:32 (спустя 29 дней)

Топик был перенесен из форума Новинки (HD|DVD|BD| TV|SAT|PDTV| - Rips) в форум Фильмы 2010 - 2017 г.г.
aleksey99
 
Показать сообщения:    
Ответить на тему

Текущее время: Сегодня 16:07

Часовой пояс: GMT + 4



Вы не можете начинать темы
Вы не можете отвечать на сообщения
Вы не можете редактировать свои сообщения
Вы не можете удалять свои сообщения
Вы не можете голосовать в опросах
Вы не можете прикреплять файлы к сообщениям
Вы не можете скачивать файлы

Майнать ▼