Ужин / The Dinner (Орен Муверман / Oren Moverman) [2017 г., триллер, драма, криминал, BDRip] Dub [iTunes]

Ответить на тему
 
Автор
Сообщение

Пост 09-Дек-2017 14:31

[Q] 

ara1205

-Ужин / The Dinner-- Производство: США
Год выпуска: 2017 г.
Жанр: триллер, драма, криминал
Продолжительность: 02:00:26
Мировая премьера: 9 ноября 2017
Дата выхода DVD: 15 января 2018
Перевод: Профессиональный (полное дублирование) [iTunes]-Режиссёр: Орен Муверман / Oren Moverman-В ролях: Ричард Гир, Лора Линни, Стив Кугэн, Ребекка Холл, Хлоя Севиньи, Чарли Пламмер, Эдеперо Одуйе, Майкл Чернус, Джоэль Биссоннет-Описание: Один вечер в ресторане. Две семьи за столом: будущий премьер-министр Стэн Ломан и его брат Пол с женами. Изысканный ужин превращается в поле битвы, а судьба их детей — в разменную монету. Как далеко способен зайти отец, чтобы защитить сына, совершившего преступление?- -Качество видео: BDRip
Контейнер: AVI
Видео кодек: XviD
Аудио кодек: AC3
Видео: 688х368, 23,976 fps, 1279 Kbps, 0.211 bits/pixel
Аудио: 48 kHz, AC3 Dolby Digital, 6 ch, 384 Kbps
Cубтитры: отсутствуют-
Общее
Полное имя : C:\Users\Admin\Pictures\Ужин\Ygin.2017.BDRip.[pirat.ca].avi
Формат : AVI
Формат/Информация : Audio Video Interleave
Размер файла : 1,41 Гбайт
Продолжительность : 2 ч. 0 м.
Общий поток : 1672 Кбит/сек
Программа кодирования : VirtualDubMod 1.5.10.2 (build 2540/release)
Видео
Идентификатор : 0
Формат : MPEG-4 Visual
Профиль формата : Advanced [email protected]
Параметр BVOP формата : 1
Параметр QPel формата : Нет
Параметр GMC формата : Без точки перехода
Параметр матрицы формата : Выборочная
Идентификатор кодека : XVID
Идентификатор кодека/Подсказка : XviD
Продолжительность : 2 ч. 0 м.
Битрейт : 1279 Кбит/сек
Ширина : 688 пикселей
Высота : 368 пикселей
Соотношение сторон : 1,85:1
Частота кадров : 23,976 кадра/сек
Цветовое пространство : YUV
Субдискретизация насыщенности : 4:2:0
Битовая глубина : 8 бит
Тип развёртки : Прогрессивная
Метод сжатия : С потерями
Бит/(Пиксели*Кадры) : 0.211
Размер потока : 1,08 Гбайт (76%)
Библиотека кодирования : XviD 73
Аудио
Идентификатор : 1
Формат : AC-3
Формат/Информация : Audio Coding 3
Расширение режима : CM (complete main)
Параметр Endianness формата : Big
Идентификатор кодека : 2000
Продолжительность : 2 ч. 0 м.
Вид битрейта : Постоянный
Битрейт : 384 Кбит/сек
Каналы : 6 каналов
Расположение каналов : Front: L C R, Side: L R, LFE
Частота : 48,0 КГц
Битовая глубина : 16 бит
Метод сжатия : С потерями
Размер потока : 331 Мбайт (23%)
Выравнивание : Разделение по промежуткам
Продолжительность промежутка : 42 мс. (1,00 видеокадр)
Время предзагрузки промежутка : 500 мс.
-
-
Download / Скачать

Хотите скачать бесплатно? Зарегистрируйтесь на сайте (ссылка на регистрацию). Pirat.ca - самый быстрый торрент трекер в рунете!

Как скачивать  ·   Что такое торрент  ·   Рейтинг и ограничения

jofrei53

Флибустьер

Пост 09-Дек-2017 15:44 (спустя 1 час 13 минут)

[Q] 

Спасибо! Заинтересовало.... Р. Гир в плохом не сниматься... Спасибо!!! Лови бочку
[Профиль]  [ЛС] 

Pana

Корсар

Пост 09-Дек-2017 17:06 (спустя 1 час 22 минуты)

[Q] 

Не понял с качеством. На скринах не ахти. Увы, подожду
[Профиль]  [ЛС] 

clark

Флибустьер

Пост 09-Дек-2017 19:57 (спустя 2 часа 50 минут)

[Q] 

ричарда давно не видели !!!

_________________
Последним смеётся тот, кто стреляет первым.
[Профиль]  [ЛС] 

Кристина119

Гроза морей

Пост 09-Дек-2017 21:05 (спустя 1 час 8 минут)

[Q] 

Поддерживаю, старина Ричард в Г... сниматься не будет Лови бочку
[Профиль]  [ЛС] 

pvm

Флибустьер

Пост 10-Дек-2017 03:58 (спустя 6 часов)

[Q] 

старина Ричард в Г... сниматься не будет
Как-то imdb не обнадеживает.
[Профиль]  [ЛС] 

fuch1983

Лоцман

Пост 13-Дек-2017 23:45 (спустя 3 дня)

[Q] 

Старина Ричард хорош, фильм актуальный особенно в наше время. Пол фильма нудятины непонятной(аля нелюбовь), и вторая половина с сутью фильма.
[Профиль]  [ЛС] 

RomanTroizk

Корсар

Пост 26-Дек-2017 00:15 (спустя 12 дней)

[Q] 

Мне не понравился фильм, слишком нудный. Одна болтовня
[Профиль]  [ЛС] 

Пост 13-Янв-2018 10:35 (спустя 18 дней)

Топик был перенесен из форума Новинки (HD|DVD|BD| TV|SAT|PDTV| - Rips) в форум Фильмы 2010 - 2017 г.г.
aleksey99
 
Показать сообщения:    
Ответить на тему

Текущее время: Сегодня 09:18

Часовой пояс: GMT + 4



Вы не можете начинать темы
Вы не можете отвечать на сообщения
Вы не можете редактировать свои сообщения
Вы не можете удалять свои сообщения
Вы не можете голосовать в опросах
Вы не можете прикреплять файлы к сообщениям
Вы не можете скачивать файлы

Майнать ▼