(Acoustic, Vocal, Instrumental) Tarja Turunen - From Spirits And Ghosts (Score For A Dark Christmas) - 2017 [FLAC, image +.cue, lossless]

Ответить на тему
 
Автор
Сообщение

Пост 14-Дек-2017 19:16

[Q] 

sergej644

-Tarja Turunen - From Spirits And Ghosts (Score For A Dark Christmas)--
Год издания: 2017
Страна: Finland
Жанр: Acoustic, Vocal, Instrumental
Продолжительность: 00:49:32-Лейбл издания: Ear Music
Страна-выпуска диска: USA
Номер по каталогу: 0212132EMU-Формат: FLAC
Битрейт аудио: Lossless
Тип рипа: image +.cue
Наличие сканов в содержимом раздачи: да
-

01. O Come, O Come, Emmanuel (4:57)
02. Together (3:21)
03. We Three Kings (3:54)
04. Deck The Halls (2:45)
05. Pie Jesu (3:28)
06. Amazing Grace (4:43)
07. O Tannenbaum (3:38)
08. Have Yourself A Merry Little Christmas (3:40)
09. God Rest Ye Merry Gentlemen (4:14)
10. Feliz Navidad (5:49)
11. What Child Is This (4:56)
12. We Wish You A Merry Christmas (4:07)
-
Код:
Exact Audio Copy V1.1 from 23. June 2015
EAC extraction logfile from 21. November 2017, 22:21
Tarja / From Spirits And Ghosts (Score For A Dark Christmas)
Used drive  : HP      DVD Writer 1170d   Adapter: 1  ID: 1
Read mode               : Secure
Utilize accurate stream : Yes
Defeat audio cache      : Yes
Make use of C2 pointers : No
Read offset correction                      : 6
Overread into Lead-In and Lead-Out          : No
Fill up missing offset samples with silence : Yes
Delete leading and trailing silent blocks   : No
Null samples used in CRC calculations       : Yes
Used interface                              : Native Win32 interface for Win NT & 2000
Used output format              : User Defined Encoder
Selected bitrate                : 1024 kBit/s
Quality                         : High
Add ID3 tag                     : No
Command line compressor         : C:\Program Files (x86)\Exact Audio Copy\Flac\flac.exe
Additional command line options : -V -8 -T "Date=%year%" -T "Genre=%genre%" %source%
TOC of the extracted CD
     Track |   Start  |  Length  | Start sector | End sector
    ---------------------------------------------------------
        1  |  0:00.00 |  4:56.71 |         0    |    22270
        2  |  4:56.71 |  3:21.27 |     22271    |    37372
        3  |  8:18.23 |  3:54.13 |     37373    |    54935
        4  | 12:12.36 |  2:44.50 |     54936    |    67285
        5  | 14:57.11 |  3:28.19 |     67286    |    82904
        6  | 18:25.30 |  4:42.42 |     82905    |   104096
        7  | 23:07.72 |  3:37.66 |    104097    |   120437
        8  | 26:45.63 |  3:40.24 |    120438    |   136961
        9  | 30:26.12 |  4:13.69 |    136962    |   156005
       10  | 34:40.06 |  5:48.54 |    156006    |   182159
       11  | 40:28.60 |  4:55.55 |    182160    |   204339
       12  | 45:24.40 |  4:07.17 |    204340    |   222881
Range status and errors
Selected range
     Filename C:\EAC\Ungern666\Tarja - From Spirits And Ghosts (Score For A Dark Christmas).wav
     Peak level 98.6 %
     Extraction speed 6.3 X
     Range quality 99.9 %
     Test CRC F7712347
     Copy CRC F7712347
     Copy OK
No errors occurred
AccurateRip summary
Track  1  not present in database
Track  2  not present in database
Track  3  not present in database
Track  4  not present in database
Track  5  not present in database
Track  6  not present in database
Track  7  not present in database
Track  8  not present in database
Track  9  not present in database
Track 10  not present in database
Track 11  not present in database
Track 12  not present in database
None of the tracks are present in the AccurateRip database
End of status report
---- CUETools DB Plugin V2.1.6
[CTDB TOCID: b9I7MQVYtDaJCQCawpj6jbhfDnQ-] found
Submit result: b9I7MQVYtDaJCQCawpj6jbhfDnQ- has been confirmed
Track | CTDB Status
  1   | (12/12) Accurately ripped
  2   | (12/12) Accurately ripped
  3   | (12/12) Accurately ripped
  4   | (12/12) Accurately ripped
  5   | (12/12) Accurately ripped
  6   | (12/12) Accurately ripped
  7   | (12/12) Accurately ripped
  8   | (12/12) Accurately ripped
  9   | (12/12) Accurately ripped
10   | (12/12) Accurately ripped
11   | (12/12) Accurately ripped
12   | (12/12) Accurately ripped
Код:
REM DATE 2017
REM DISCID A70B9B0C
REM COMMENT "ExactAudioCopy v1.1"
PERFORMER "Tarja"
TITLE "From Spirits And Ghosts (Score For A Dark Christmas)"
FILE "Tarja - From Spirits And Ghosts (Score For A Dark Christmas).flac" WAVE
  TRACK 01 AUDIO
    TITLE "O Come, O Come, Emmanuel"
    PERFORMER "Tarja"
    INDEX 01 00:00:00
  TRACK 02 AUDIO
    TITLE "Together"
    PERFORMER "Tarja"
    INDEX 01 04:56:71
  TRACK 03 AUDIO
    TITLE "We Three Kings"
    PERFORMER "Tarja"
    INDEX 01 08:18:23
  TRACK 04 AUDIO
    TITLE "Deck The Halls"
    PERFORMER "Tarja"
    INDEX 01 12:12:36
  TRACK 05 AUDIO
    TITLE "Pie Jesu"
    PERFORMER "Tarja"
    INDEX 01 14:57:11
  TRACK 06 AUDIO
    TITLE "Amazing Grace"
    PERFORMER "Tarja"
    INDEX 01 18:25:30
  TRACK 07 AUDIO
    TITLE "O Tannenbaum"
    PERFORMER "Tarja"
    INDEX 01 23:07:72
  TRACK 08 AUDIO
    TITLE "Have Yourself A Merry Little Christmas"
    PERFORMER "Tarja"
    INDEX 01 26:45:63
  TRACK 09 AUDIO
    TITLE "God Rest Ye Merry Gentlemen"
    PERFORMER "Tarja"
    INDEX 01 30:26:12
  TRACK 10 AUDIO
    TITLE "Feliz Navidad"
    PERFORMER "Tarja"
    INDEX 01 34:40:06
  TRACK 11 AUDIO
    TITLE "What Child Is This"
    PERFORMER "Tarja"
    INDEX 01 40:28:60
  TRACK 12 AUDIO
    TITLE "We Wish You A Merry Christmas"
    PERFORMER "Tarja"
    INDEX 01 45:24:40
--
Download / Скачать

Хотите скачать бесплатно? Зарегистрируйтесь на сайте (ссылка на регистрацию). Pirat.ca - самый быстрый торрент трекер в рунете!

Как скачивать  ·   Что такое торрент  ·   Рейтинг и ограничения

Показать сообщения:    
Ответить на тему

Текущее время: Сегодня 17:29

Часовой пояс: GMT + 4



Вы не можете начинать темы
Вы не можете отвечать на сообщения
Вы не можете редактировать свои сообщения
Вы не можете удалять свои сообщения
Вы не можете голосовать в опросах
Вы не можете прикреплять файлы к сообщениям
Вы не можете скачивать файлы

Майнать ▼