(Electronic, Trance, Techno) ATB - neXt (2CD) - 2017 [FLAC, tracks +.cue, lossless]

Ответить на тему
 
Автор
Сообщение

Пост 16-Дек-2017 19:36

[Q] 

sergej644

-ATB - neXt (2CD)--
Год издания: 2017
Страна: Germany
Жанр: Electronic, Trance, Techno
Продолжительность: 01:45:41-Лейбл издания: Magic Records
Страна-выпуска диска: EU
Номер по каталогу: 574 729 1-Формат: FLAC
Битрейт аудио: Lossless
Тип рипа: tracks +.cue
Наличие сканов в содержимом раздачи: да
-

01. ATB feat. HALIENE - Pages (3:43)
02. ATB feat. Sean Ryan - Never Without You (5:36)
03. ATB feat. Cavale - If It Takes All Night (3:28)
04. ATB feat. Mike Schmid - Stay With Me (3:19)
05. ATB with F51 feat. Robbin & Jonnis - Message Out to You (3:36)
06. ATB feat. Mister Blonde - A Place Like You (3:25)
07. ATB & Andrew Rayel - Connected (4:12)
08. ATB feat. Lenachka - Remember When (3:31)
09. ATB & Myon feat. Ethan Thompson - Breach (3:44)
10. ATB vs. Alyx Ander feat. Maria Z. - Close Enough to Touch (3:42)
11. ATB feat. Jan Lochel - I'm Here (4:02)
12. ATB feat. Mike Schmid - Heart of Stone (3:45)
13. ATB feat. Mike Schmid - Flash X (3:21)

01. ATB & Anova - Route 66 (5:10)
02. ATB feat. Tilsen - Faith (3:56)
03. ATB - Green Sand (5:06)
04. ATB feat. Fade - Moving Cloudbreak (5:40)
05. ATB & Sean Ryan - When It Ends It Starts Again (Ambient Version) (5:37)
06. ATB - Back Home (3:19)
07. ATB - Restart (3:17)
08. ATB - Never Stop (3:49)
09. ATB - Time (4:28)
10. ATB - Pulsar (6:51)
11. ATB - Within a Dream (4:52)
12. ATB - Project X (4:11)
-
Код:
Exact Audio Copy V1.3 from 2. September 2016
EAC extraction logfile from 5. May 2017, 18:34
ATB / neXt (CD1)
Used drive  : PIONEER DVD-RW DVRTD11RS   Adapter: 1  ID: 0
Read mode               : Secure
Utilize accurate stream : Yes
Defeat audio cache      : Yes
Make use of C2 pointers : No
Read offset correction                      : 6
Overread into Lead-In and Lead-Out          : No
Fill up missing offset samples with silence : Yes
Delete leading and trailing silent blocks   : No
Null samples used in CRC calculations       : Yes
Used interface                              : Native Win32 interface for Win NT & 2000
Gap handling                                : Appended to previous track
Used output format              : User Defined Encoder
Selected bitrate                : 1024 kBit/s
Quality                         : High
Add ID3 tag                     : No
Command line compressor         : C:\Program Files (x86)\Exact Audio Copy\Flac\flac.exe
Additional command line options : -8 -V -T "ARTIST=%artist%" -T "TITLE=%title%" -T "ALBUM=%albumtitle%" -T "DATE=%year%" -T "TRACKNUMBER=%tracknr%" -T "TOTALTRACKS=%numtracks%" -T "GENRE=%genre%" -T "ALBUMARTIST=%albumartist%" -T "ALBUM ARTIST=%albumartist%" -T "COMMENT=EAC Secure Mode, Test & Copy, AccurateRip, FLAC -8" %source%
TOC of the extracted CD
     Track |   Start  |  Length  | Start sector | End sector
    ---------------------------------------------------------
        1  |  0:00.00 |  3:42.50 |         0    |    16699
        2  |  3:42.50 |  5:36.11 |     16700    |    41910
        3  |  9:18.61 |  3:27.67 |     41911    |    57502
        4  | 12:46.53 |  3:19.18 |     57503    |    72445
        5  | 16:05.71 |  3:35.56 |     72446    |    88626
        6  | 19:41.52 |  3:24.46 |     88627    |   103972
        7  | 23:06.23 |  4:12.24 |    103973    |   122896
        8  | 27:18.47 |  3:30.69 |    122897    |   138715
        9  | 30:49.41 |  3:44.30 |    138716    |   155545
       10  | 34:33.71 |  3:42.18 |    155546    |   172213
       11  | 38:16.14 |  4:02.07 |    172214    |   190370
       12  | 42:18.21 |  3:44.57 |    190371    |   207227
       13  | 46:03.03 |  3:20.70 |    207228    |   222297
Track  1
     Filename I:\EAC\ATB - neXt (2017) [FLAC] {Magic Records 574 729 1}\CD1\01 - Pages.wav
     Pre-gap length  0:00:02.00
     Peak level 100.0 %
     Extraction speed 2.9 X
     Track quality 100.0 %
     Test CRC 7FF91EAD
     Copy CRC 7FF91EAD
     Track not present in AccurateRip database
     Copy OK
Track  2
     Filename I:\EAC\ATB - neXt (2017) [FLAC] {Magic Records 574 729 1}\CD1\02 - Never Without You.wav
     Peak level 98.2 %
     Extraction speed 3.5 X
     Track quality 100.0 %
     Test CRC 28535378
     Copy CRC 28535378
     Track not present in AccurateRip database
     Copy OK
Track  3
     Filename I:\EAC\ATB - neXt (2017) [FLAC] {Magic Records 574 729 1}\CD1\03 - If It Takes All Night.wav
     Peak level 98.2 %
     Extraction speed 3.6 X
     Track quality 100.0 %
     Test CRC F7AEC2F7
     Copy CRC F7AEC2F7
     Track not present in AccurateRip database
     Copy OK
Track  4
     Filename I:\EAC\ATB - neXt (2017) [FLAC] {Magic Records 574 729 1}\CD1\04 - Stay With Me.wav
     Peak level 98.2 %
     Extraction speed 3.8 X
     Track quality 100.0 %
     Test CRC 88D4DACA
     Copy CRC 88D4DACA
     Track not present in AccurateRip database
     Copy OK
Track  5
     Filename I:\EAC\ATB - neXt (2017) [FLAC] {Magic Records 574 729 1}\CD1\05 - Message Out to You.wav
     Peak level 98.2 %
     Extraction speed 4.0 X
     Track quality 100.0 %
     Test CRC D42E771F
     Copy CRC D42E771F
     Track not present in AccurateRip database
     Copy OK
Track  6
     Filename I:\EAC\ATB - neXt (2017) [FLAC] {Magic Records 574 729 1}\CD1\06 - A Place Like You.wav
     Peak level 98.2 %
     Extraction speed 4.2 X
     Track quality 100.0 %
     Test CRC F6B51079
     Copy CRC F6B51079
     Track not present in AccurateRip database
     Copy OK
Track  7
     Filename I:\EAC\ATB - neXt (2017) [FLAC] {Magic Records 574 729 1}\CD1\07 - Connected.wav
     Peak level 98.2 %
     Extraction speed 3.8 X
     Track quality 99.9 %
     Test CRC 172A0F32
     Copy CRC 172A0F32
     Track not present in AccurateRip database
     Copy OK
Track  8
     Filename I:\EAC\ATB - neXt (2017) [FLAC] {Magic Records 574 729 1}\CD1\08 - Remember When.wav
     Peak level 98.2 %
     Extraction speed 4.7 X
     Track quality 100.0 %
     Test CRC AE30FC08
     Copy CRC AE30FC08
     Track not present in AccurateRip database
     Copy OK
Track  9
     Filename I:\EAC\ATB - neXt (2017) [FLAC] {Magic Records 574 729 1}\CD1\09 - Breach.wav
     Peak level 98.2 %
     Extraction speed 4.0 X
     Track quality 99.9 %
     Test CRC 41C3B42C
     Copy CRC 41C3B42C
     Track not present in AccurateRip database
     Copy OK
Track 10
     Filename I:\EAC\ATB - neXt (2017) [FLAC] {Magic Records 574 729 1}\CD1\10 - Close Enough to Touch.wav
     Peak level 98.2 %
     Extraction speed 5.0 X
     Track quality 100.0 %
     Test CRC A0076FAD
     Copy CRC A0076FAD
     Track not present in AccurateRip database
     Copy OK
Track 11
     Filename I:\EAC\ATB - neXt (2017) [FLAC] {Magic Records 574 729 1}\CD1\11 - I'm Here.wav
     Peak level 98.2 %
     Extraction speed 5.3 X
     Track quality 100.0 %
     Test CRC B854C36C
     Copy CRC B854C36C
     Track not present in AccurateRip database
     Copy OK
Track 12
     Filename I:\EAC\ATB - neXt (2017) [FLAC] {Magic Records 574 729 1}\CD1\12 - Heart of Stone.wav
     Peak level 98.2 %
     Extraction speed 4.4 X
     Track quality 99.9 %
     Test CRC 45581913
     Copy CRC 45581913
     Track not present in AccurateRip database
     Copy OK
Track 13
     Filename I:\EAC\ATB - neXt (2017) [FLAC] {Magic Records 574 729 1}\CD1\13 - Flash X.wav
     Peak level 98.2 %
     Extraction speed 5.3 X
     Track quality 100.0 %
     Test CRC 52E2DB4B
     Copy CRC 52E2DB4B
     Track not present in AccurateRip database
     Copy OK
None of the tracks are present in the AccurateRip database
No errors occurred
End of status report
---- CUETools DB Plugin V2.1.6
[CTDB TOCID: AqOo__m2RYTWuLfbrFIrmGxRt5E-] found
Submit result: AqOo__m2RYTWuLfbrFIrmGxRt5E- has been confirmed
Track | CTDB Status
  1   | (7/7) Accurately ripped
  2   | (7/7) Accurately ripped
  3   | (7/7) Accurately ripped
  4   | (7/7) Accurately ripped
  5   | (7/7) Accurately ripped
  6   | (7/7) Accurately ripped
  7   | (7/7) Accurately ripped
  8   | (7/7) Accurately ripped
  9   | (7/7) Accurately ripped
10   | (7/7) Accurately ripped
11   | (7/7) Accurately ripped
12   | (7/7) Accurately ripped
13   | (7/7) Accurately ripped
Код:
Exact Audio Copy V1.3 from 2. September 2016
EAC extraction logfile from 5. May 2017, 19:06
ATB / neXt (CD2)
Used drive  : PIONEER DVD-RW DVRTD11RS   Adapter: 1  ID: 0
Read mode               : Secure
Utilize accurate stream : Yes
Defeat audio cache      : Yes
Make use of C2 pointers : No
Read offset correction                      : 6
Overread into Lead-In and Lead-Out          : No
Fill up missing offset samples with silence : Yes
Delete leading and trailing silent blocks   : No
Null samples used in CRC calculations       : Yes
Used interface                              : Native Win32 interface for Win NT & 2000
Gap handling                                : Appended to previous track
Used output format              : User Defined Encoder
Selected bitrate                : 1024 kBit/s
Quality                         : High
Add ID3 tag                     : No
Command line compressor         : C:\Program Files (x86)\Exact Audio Copy\Flac\flac.exe
Additional command line options : -8 -V -T "ARTIST=%artist%" -T "TITLE=%title%" -T "ALBUM=%albumtitle%" -T "DATE=%year%" -T "TRACKNUMBER=%tracknr%" -T "TOTALTRACKS=%numtracks%" -T "GENRE=%genre%" -T "ALBUMARTIST=%albumartist%" -T "ALBUM ARTIST=%albumartist%" -T "COMMENT=EAC Secure Mode, Test & Copy, AccurateRip, FLAC -8" %source%
TOC of the extracted CD
     Track |   Start  |  Length  | Start sector | End sector
    ---------------------------------------------------------
        1  |  0:00.00 |  5:10.10 |         0    |    23259
        2  |  5:10.10 |  3:56.23 |     23260    |    40982
        3  |  9:06.33 |  5:06.01 |     40983    |    63933
        4  | 14:12.34 |  5:40.37 |     63934    |    89470
        5  | 19:52.71 |  5:36.70 |     89471    |   114740
        6  | 25:29.66 |  3:18.72 |    114741    |   129662
        7  | 28:48.63 |  3:17.35 |    129663    |   144472
        8  | 32:06.23 |  3:49.04 |    144473    |   161651
        9  | 35:55.27 |  4:28.10 |    161652    |   181761
       10  | 40:23.37 |  6:50.60 |    181762    |   212571
       11  | 47:14.22 |  4:52.10 |    212572    |   234481
       12  | 52:06.32 |  4:10.60 |    234482    |   253291
Track  1
     Filename I:\EAC\ATB - neXt (2017) [FLAC] {Magic Records 574 729 1}\CD2\01 - Route 66.wav
     Pre-gap length  0:00:02.00
     Peak level 98.2 %
     Extraction speed 3.1 X
     Track quality 100.0 %
     Test CRC 49B994A9
     Copy CRC 49B994A9
     Track not present in AccurateRip database
     Copy OK
Track  2
     Filename I:\EAC\ATB - neXt (2017) [FLAC] {Magic Records 574 729 1}\CD2\02 - Faith.wav
     Peak level 96.5 %
     Extraction speed 3.4 X
     Track quality 100.0 %
     Test CRC 1FD0D8AF
     Copy CRC 1FD0D8AF
     Track not present in AccurateRip database
     Copy OK
Track  3
     Filename I:\EAC\ATB - neXt (2017) [FLAC] {Magic Records 574 729 1}\CD2\03 - Green Sand.wav
     Peak level 99.9 %
     Extraction speed 3.8 X
     Track quality 100.0 %
     Test CRC ABA59CA3
     Copy CRC ABA59CA3
     Track not present in AccurateRip database
     Copy OK
Track  4
     Filename I:\EAC\ATB - neXt (2017) [FLAC] {Magic Records 574 729 1}\CD2\04 - Moving Cloudbreak.wav
     Peak level 99.9 %
     Extraction speed 4.2 X
     Track quality 100.0 %
     Test CRC 3ADAC62C
     Copy CRC 3ADAC62C
     Track not present in AccurateRip database
     Copy OK
Track  5
     Filename I:\EAC\ATB - neXt (2017) [FLAC] {Magic Records 574 729 1}\CD2\05 - When It Ends It Starts Again (Ambient Version).wav
     Peak level 99.8 %
     Extraction speed 4.6 X
     Track quality 100.0 %
     Test CRC E4329661
     Copy CRC E4329661
     Track not present in AccurateRip database
     Copy OK
Track  6
     Filename I:\EAC\ATB - neXt (2017) [FLAC] {Magic Records 574 729 1}\CD2\06 - Back Home.wav
     Peak level 94.6 %
     Extraction speed 4.5 X
     Track quality 100.0 %
     Test CRC 937043AE
     Copy CRC 937043AE
     Track not present in AccurateRip database
     Copy OK
Track  7
     Filename I:\EAC\ATB - neXt (2017) [FLAC] {Magic Records 574 729 1}\CD2\07 - Restart.wav
     Peak level 96.0 %
     Extraction speed 4.6 X
     Track quality 100.0 %
     Test CRC 9D01D993
     Copy CRC 9D01D993
     Track not present in AccurateRip database
     Copy OK
Track  8
     Filename I:\EAC\ATB - neXt (2017) [FLAC] {Magic Records 574 729 1}\CD2\08 - Never Stop.wav
     Peak level 100.0 %
     Extraction speed 4.1 X
     Track quality 99.9 %
     Test CRC 88E47DAD
     Copy CRC 88E47DAD
     Track not present in AccurateRip database
     Copy OK
Track  9
     Filename I:\EAC\ATB - neXt (2017) [FLAC] {Magic Records 574 729 1}\CD2\09 - Time.wav
     Peak level 97.0 %
     Extraction speed 5.2 X
     Track quality 100.0 %
     Test CRC 1BC89F54
     Copy CRC 1BC89F54
     Track not present in AccurateRip database
     Copy OK
Track 10
     Filename I:\EAC\ATB - neXt (2017) [FLAC] {Magic Records 574 729 1}\CD2\10 - Pulsar.wav
     Peak level 96.7 %
     Extraction speed 5.8 X
     Track quality 100.0 %
     Test CRC 15841EED
     Copy CRC 15841EED
     Track not present in AccurateRip database
     Copy OK
Track 11
     Filename I:\EAC\ATB - neXt (2017) [FLAC] {Magic Records 574 729 1}\CD2\11 - Within a Dream.wav
     Peak level 98.8 %
     Extraction speed 5.0 X
     Track quality 99.9 %
     Test CRC 738065FE
     Copy CRC 738065FE
     Track not present in AccurateRip database
     Copy OK
Track 12
     Filename I:\EAC\ATB - neXt (2017) [FLAC] {Magic Records 574 729 1}\CD2\12 - Project X.wav
     Peak level 98.4 %
     Extraction speed 5.9 X
     Track quality 100.0 %
     Test CRC E0C5163B
     Copy CRC E0C5163B
     Track not present in AccurateRip database
     Copy OK
None of the tracks are present in the AccurateRip database
No errors occurred
End of status report
---- CUETools DB Plugin V2.1.6
[CTDB TOCID: kSyVCyM_pyDC82wygMSqivdBd0A-] found
Submit result: kSyVCyM_pyDC82wygMSqivdBd0A- has been confirmed
Track | CTDB Status
  1   | (7/7) Accurately ripped
  2   | (7/7) Accurately ripped
  3   | (7/7) Accurately ripped
  4   | (7/7) Accurately ripped
  5   | (7/7) Accurately ripped
  6   | (7/7) Accurately ripped
  7   | (7/7) Accurately ripped
  8   | (7/7) Accurately ripped
  9   | (7/7) Accurately ripped
10   | (7/7) Accurately ripped
11   | (7/7) Accurately ripped
12   | (7/7) Accurately ripped
Код:
REM GENRE Electronic
REM DATE 2017
REM DISCID BD0B930D
REM COMMENT "ExactAudioCopy v1.3"
PERFORMER "ATB"
TITLE "neXt (CD1)"
REM COMPOSER ""
FILE "01 - Pages.wav" WAVE
  TRACK 01 AUDIO
    TITLE "Pages"
    PERFORMER "ATB feat. HALIENE"
    REM COMPOSER ""
    INDEX 01 00:00:00
FILE "02 - Never Without You.wav" WAVE
  TRACK 02 AUDIO
    TITLE "Never Without You"
    PERFORMER "ATB feat. Sean Ryan"
    REM COMPOSER ""
    INDEX 01 00:00:00
FILE "03 - If It Takes All Night.wav" WAVE
  TRACK 03 AUDIO
    TITLE "If It Takes All Night"
    PERFORMER "ATB feat. Cavale"
    REM COMPOSER ""
    INDEX 01 00:00:00
FILE "04 - Stay With Me.wav" WAVE
  TRACK 04 AUDIO
    TITLE "Stay With Me"
    PERFORMER "ATB feat. Mike Schmid"
    REM COMPOSER ""
    INDEX 01 00:00:00
FILE "05 - Message Out to You.wav" WAVE
  TRACK 05 AUDIO
    TITLE "Message Out to You"
    PERFORMER "ATB with F51 feat. Robbin & Jonnis"
    REM COMPOSER ""
    INDEX 01 00:00:00
FILE "06 - A Place Like You.wav" WAVE
  TRACK 06 AUDIO
    TITLE "A Place Like You"
    PERFORMER "ATB feat. Mister Blonde"
    REM COMPOSER ""
    INDEX 01 00:00:00
FILE "07 - Connected.wav" WAVE
  TRACK 07 AUDIO
    TITLE "Connected"
    PERFORMER "ATB & Andrew Rayel"
    REM COMPOSER ""
    INDEX 01 00:00:00
FILE "08 - Remember When.wav" WAVE
  TRACK 08 AUDIO
    TITLE "Remember When"
    PERFORMER "ATB feat. Lenachka"
    REM COMPOSER ""
    INDEX 01 00:00:00
FILE "09 - Breach.wav" WAVE
  TRACK 09 AUDIO
    TITLE "Breach"
    PERFORMER "ATB & Myon feat. Ethan Thompson"
    REM COMPOSER ""
    INDEX 01 00:00:00
FILE "10 - Close Enough to Touch.wav" WAVE
  TRACK 10 AUDIO
    TITLE "Close Enough to Touch"
    PERFORMER "ATB vs. Alyx Ander feat. Maria Z."
    REM COMPOSER ""
    INDEX 01 00:00:00
FILE "11 - I'm Here.wav" WAVE
  TRACK 11 AUDIO
    TITLE "I'm Here"
    PERFORMER "ATB feat. Jan Lochel"
    REM COMPOSER ""
    INDEX 01 00:00:00
FILE "12 - Heart of Stone.wav" WAVE
  TRACK 12 AUDIO
    TITLE "Heart of Stone"
    PERFORMER "ATB feat. Mike Schmid"
    REM COMPOSER ""
    INDEX 01 00:00:00
FILE "13 - Flash X.wav" WAVE
  TRACK 13 AUDIO
    TITLE "Flash X"
    PERFORMER "ATB feat. Mike Schmid"
    REM COMPOSER ""
    INDEX 01 00:00:00
Код:
REM GENRE Electronic
REM DATE 2017
REM DISCID 9F0D310C
REM COMMENT "ExactAudioCopy v1.3"
PERFORMER "ATB"
TITLE "neXt (CD2)"
REM COMPOSER ""
FILE "01 - Route 66.wav" WAVE
  TRACK 01 AUDIO
    TITLE "Route 66"
    PERFORMER "ATB & Anova"
    REM COMPOSER ""
    INDEX 01 00:00:00
FILE "02 - Faith.wav" WAVE
  TRACK 02 AUDIO
    TITLE "Faith"
    PERFORMER "ATB feat. Tilsen"
    REM COMPOSER ""
    INDEX 01 00:00:00
FILE "03 - Green Sand.wav" WAVE
  TRACK 03 AUDIO
    TITLE "Green Sand"
    PERFORMER "ATB"
    REM COMPOSER ""
    INDEX 01 00:00:00
FILE "04 - Moving Cloudbreak.wav" WAVE
  TRACK 04 AUDIO
    TITLE "Moving Cloudbreak"
    PERFORMER "ATB feat. Fade"
    REM COMPOSER ""
    INDEX 01 00:00:00
FILE "05 - When It Ends It Starts Again (Ambient Version).wav" WAVE
  TRACK 05 AUDIO
    TITLE "When It Ends It Starts Again (Ambient Version)"
    PERFORMER "ATB & Sean Ryan"
    REM COMPOSER ""
    INDEX 01 00:00:00
FILE "06 - Back Home.wav" WAVE
  TRACK 06 AUDIO
    TITLE "Back Home"
    PERFORMER "ATB"
    REM COMPOSER ""
    INDEX 01 00:00:00
FILE "07 - Restart.wav" WAVE
  TRACK 07 AUDIO
    TITLE "Restart"
    PERFORMER "ATB"
    REM COMPOSER ""
    INDEX 01 00:00:00
FILE "08 - Never Stop.wav" WAVE
  TRACK 08 AUDIO
    TITLE "Never Stop"
    PERFORMER "ATB"
    REM COMPOSER ""
    INDEX 01 00:00:00
FILE "09 - Time.wav" WAVE
  TRACK 09 AUDIO
    TITLE "Time"
    PERFORMER "ATB"
    REM COMPOSER ""
    INDEX 01 00:00:00
FILE "10 - Pulsar.wav" WAVE
  TRACK 10 AUDIO
    TITLE "Pulsar"
    PERFORMER "ATB"
    REM COMPOSER ""
    INDEX 01 00:00:00
FILE "11 - Within a Dream.wav" WAVE
  TRACK 11 AUDIO
    TITLE "Within a Dream"
    PERFORMER "ATB"
    REM COMPOSER ""
    INDEX 01 00:00:00
FILE "12 - Project X.wav" WAVE
  TRACK 12 AUDIO
    TITLE "Project X"
    PERFORMER "ATB"
    REM COMPOSER ""
    INDEX 01 00:00:00
--
Download / Скачать

Хотите скачать бесплатно? Зарегистрируйтесь на сайте (ссылка на регистрацию). Pirat.ca - самый быстрый торрент трекер в рунете!

Как скачивать  ·   Что такое торрент  ·   Рейтинг и ограничения

Показать сообщения:    
Ответить на тему

Текущее время: Сегодня 13:03

Часовой пояс: GMT + 4



Вы не можете начинать темы
Вы не можете отвечать на сообщения
Вы не можете редактировать свои сообщения
Вы не можете удалять свои сообщения
Вы не можете голосовать в опросах
Вы не можете прикреплять файлы к сообщениям
Вы не можете скачивать файлы

Майнать ▼