Ниндзюцу. Роберт Басси. Разоружение Противника (1987) [VHSRip] VO

Ответить на тему
 
Автор
Сообщение

Пост 02-Ноя-2011 03:04

[Q] 

ExoGenesis

Морской Волк

Ниндзюцу. Роберт Басси. Разоружение Противника
Год выпуска: 1987
Вид спорта: Ниндзюцу
Участники: Роберт Басси
Продолжительность: 00:55:18
Комментарий: Любительский (одноголосый)
Язык комментариев: Русский
Описание:
Роберт Басси - один из носителей традиционного стиля Тогакуре Рю Ниндзюцу, именно он принес данный стиль в США в 1979 г. и основал там школу данного стиля, доработав его приемами из различных боевых искусств. Его учителем был Шихан Тоширо Нагато.
Увлечение Басси восточными единоборствами началось с 9 лет, когда он впервые прочитал от корки до корки журнал о карате. Уже в 11 лет родители отдают его в класс занятий восточными единоборствами. Позже он путешествует по восточным странам, побывает в Южной Корее, где изучает техники, которые до этого никогда не преподносились иностранцам и получает право на преподавание стиля Тогакуре Рю Ниндзюцу от носителя в 34 поколении Соке Масааки Хатсуми.
Сегодня Роберт Басси руководит собственной охранной фирмой, которая проводит обучение по созданной им системе телохранителей и охранников.
Качество: VHSRip
Формат: AVI
Видео кодек: XviD
Аудио кодек: MP3
Видео: Разрешение : 720x576 Кодек : XviD MPEG-4 codec Кадров в секунду : 25,00 Битрейт : 906 Kbps
Аудио: Кодек : MPEG 1 or 2 Audio Layer 3 (MP3) Количество каналов : 2 Частота дискретизации : 44100 Hz Битрейт : 320 Kbps
Общее
Полное имя : D:\Distributives\ninjutsu\Ниндзютсу.Разоружение противника.Роберт Басси..avi
Формат : AVI
Формат/Информация : Audio Video Interleave
Размер файла : 485 Мбайт
Продолжительность : 55 м.
Общий поток : 1226 Кбит/сек
Видео
Идентификатор : 1
Формат : MPEG-4 Visual
Параметр BVOP формата : Нет
Параметр QPel формата : Нет
Параметр GMC формата : Без точки перехода
Параметр матрицы формата : Default (H.263)
Идентификатор кодека : XVID
Идентификатор кодека/Подсказка : XviD
Продолжительность : 55 м.
Битрейт : 900 Кбит/сек
Ширина : 720 пикселей
Высота : 576 пикселей
Соотношение сторон : 5:4
Частота кадров : 25,000 кадров/сек
Стандарт вещания : PAL
Цветовое пространство : YUV
Субдискретизация насыщенности : 4:2:0
Битовая глубина : 8 бит
Тип развёртки : Прогрессивная
Метод сжатия : С потерями
Бит/(Пиксели*Кадры) : 0.087
Размер потока : 356 Мбайт (73%)
Аудио
Идентификатор : 0
Формат : MPEG Audio
Версия формата : Version 1
Профиль формата : Layer 3
Режим : Joint stereo
Идентификатор кодека : 55
Идентификатор кодека/Подсказка : MP3
Продолжительность : 55 м.
Вид битрейта : Постоянный
Битрейт : 320 Кбит/сек
Каналы : 2 канала
Частота : 44,1 КГц
Метод сжатия : С потерями
Размер потока : 127 Мбайт (26%)
Выравнивание : Разделение по промежуткам
Продолжительность промежутка : 40 мс. (1,00 видеокадр)
Библиотека кодирования : LAME3.98.2





Download / Скачать

Хотите скачать бесплатно? Зарегистрируйтесь на сайте (ссылка на регистрацию). Pirat.ca - самый быстрый торрент трекер в рунете!

Как скачивать  ·   Что такое торрент  ·   Рейтинг и ограничения



Последний раз редактировалось: ExoGenesis (2011-11-08 23:27), всего редактировалось 2 раз(а)

NightWolfMaster

Штурман

Пост 07-Ноя-2011 21:49 (спустя 5 дней)

[Q] 

Ай не могу скачать! ((

_________________
[Профиль]  [ЛС] 

ExoGenesis ®

Морской Волк

1677

Пост 08-Ноя-2011 02:24 (спустя 4 часа)

[Q] 

Я просто уезжал из города на пару дней, но сегодня вернулся и снова раздаю. ))

_________________
Знающий людей разумен. Знающий себя просвещен. Побеждающий людей силен. Побеждающий самого себя могуществен.
[Профиль]  [ЛС] 

Пост 11-Ноя-2011 03:46 (спустя 3 дня)

Топик был перенесен из форума Спорт в форум Разное

CaptRom
 

U-858

Флибустьер

Пост 09-Фев-2012 12:04 (спустя 3 месяца 1 день)

[Q] 

[Профиль]  [ЛС] 

effiglio

Корсар

Пост 20-Янв-2013 15:19 (спустя 11 месяцев 11 дней)

[Q] 

[Профиль]  [ЛС] 

Боцман

1836

Пост 23-Янв-2013 09:03 (спустя 2 дня 17 часов)

[Q] 

а скрины где?

_________________
не верь не бойся не проси не плачь...
[Профиль]  [ЛС] 

U-858

Флибустьер

Пост 11-Фев-2013 19:44 (спустя 19 дней)

[Q] 

[Профиль]  [ЛС] 

Боцман

1836

Пост 03-Май-2013 07:27 (спустя 2 месяца 19 дней)

[Q] 

Вахта!!! Скрины где? dj

_________________
не верь не бойся не проси не плачь...
[Профиль]  [ЛС] 

stas498

Корсар

Пост 03-Июн-2013 15:46 (спустя 1 месяц)

[Q] 

[Профиль]  [ЛС] 

ermenus68

Лоцман

Пост 30-Окт-2013 21:35 (спустя 4 месяца 27 дней)

[Q] 

Автору респект!!! bi Спасибо за раздачу
[Профиль]  [ЛС] 

vpadina

Легенда

91

Пост 06-Июл-2014 22:15 (спустя 8 месяцев 7 дней)

[Q] 

Спасибо! Всем качать!!!
[Профиль]  [ЛС] 

vinibek2

Морской Волк

Пост 12-Июл-2014 10:40 (спустя 5 дней)

[Q] 

Вооруженного противника можно разоружить в кино :)
[Профиль]  [ЛС] 

Securityuser

Гроза морей

Пост 20-Дек-2017 09:30 (спустя 3 года 5 месяцев)

[Q] 

Спасибо за раздачу! Раздающему респект!
[Профиль]  [ЛС] 
Показать сообщения:    
Ответить на тему

Текущее время: Сегодня 07:26

Часовой пояс: GMT + 4



Вы не можете начинать темы
Вы не можете отвечать на сообщения
Вы не можете редактировать свои сообщения
Вы не можете удалять свои сообщения
Вы не можете голосовать в опросах
Вы не можете прикреплять файлы к сообщениям
Вы не можете скачивать файлы

Майнать ▼