(Russian Rock) Вячеслав Бутусов - Гудбай, Америка! - 2017 [FLAC, tracks +.cue, lossless]

Ответить на тему
 
Автор
Сообщение

Пост 16-Дек-2017 00:11

[Q] 

sergej644

-Вячеслав Бутусов - Гудбай, Америка!--
Год издания: 2017
Страна: Russia
Жанр: Russian Rock
Продолжительность: 01:04:17-Лейбл издания: Первое музыкальное издательство
Страна-выпуска диска: Russia -Формат: FLAC
Битрейт аудио: Lossless
Тип рипа: tracks +.cue
Наличие сканов в содержимом раздачи: да
-

01. Intro (0:26)
02. Эта музыка будет вечной (5:23)
03. Одинокая птица (4:43)
04. Взгляд с экрана (4:28)
05. Казанова (4:33)
06. Люди (4:53)
07. Титаник (4:22)
08. Синоптики (4:44)
09. Доктор твоего тела (4:52)
10. Бриллиантовые дороги (5:23)
11. Дыхание (5:21)
12. Скованные одной цепью (5:08)
13. Я хочу быть с тобой (5:29)
14. Прощальное письмо (4:32)
-
Код:
Exact Audio Copy V1.0 beta 3 from 29. August 2011
Отчёт EAC об извлечении, выполненном 14. декабря 2017, 18:49
Вячеслав Бутусов / Гудбай Америка
Дисковод: TSSTcorpCDDVDW SH-224DB   Adapter: 0  ID: 0
Режим чтения                 : Достоверность
Использование точного потока : Да
Отключение кэша аудио        : Да
Использование указателей C2  : Нет
Коррекция смещения при чтении                     : 6
Способность читать области Lead-in и Lead-out     : Нет
Заполнение пропущенных сэмплов тишиной            : Да
Удаление блоков с тишиной в начале и конце        : Нет
При вычислениях CRC использовались нулевые сэмплы : Да
Интерфейс                                         : Встроенный Win32-интерфейс для Win NT/2000
Обработка зазоров                                 : Добавлено к предыдущему треку
Выходной формат          : Пользовательский кодировщик
Выбранный битрейт        : 128 kBit/s
Качество                 : Высокий
Добавление ID3-тега      : Нет
Утилита сжатия           : L:\Новый том (L)\программы\аудио\Exact Audio Copy\Flac\flac.exe
Дополнительные параметры : -V -8 -T "Genre=%genre%" -T "Artist=%artist%" -T "Title=%title%" -T "Album=%albumtitle%" -T "Date=%year%" -T "Tracknumber=%tracknr%" -T "Comment=%comment%" %source%
TOC извлечённого CD
     Трек |   Старт  | Длительность | Начальный сектор | Конечный сектор
    ---------------------------------------------------------------------
       1  |  0:00.00 |    0:26.35   |           0      |       1984
       2  |  0:26.35 |    5:22.64   |        1985      |      26198
       3  |  5:49.24 |    4:43.36   |       26199      |      47459
       4  | 10:32.60 |    4:28.04   |       47460      |      67563
       5  | 15:00.64 |    4:33.08   |       67564      |      88046
       6  | 19:33.72 |    4:52.58   |       88047      |     110004
       7  | 24:26.55 |    4:21.61   |      110005      |     129640
       8  | 28:48.41 |    4:43.68   |      129641      |     150933
       9  | 33:32.34 |    4:51.39   |      150934      |     172797
      10  | 38:23.73 |    5:22.47   |      172798      |     196994
      11  | 43:46.45 |    5:20.40   |      196995      |     221034
      12  | 49:07.10 |    5:08.24   |      221035      |     244158
      13  | 54:15.34 |    5:29.06   |      244159      |     268839
      14  | 59:44.40 |    4:32.15   |      268840      |     289254
Трек  1
     Имя файла M:\Новые оцифровки\01 Вячеслав Бутусов Intro.wav
     Длина предзазора  0:00:02.00
     Пиковый уровень 85.5 %
     Скорость извлечения 0.9 X
     Качество трека 100.0 %
     CRC теста 955F8B70
     CRC копии 955F8B70
     Копирование... OK
Трек  2
     Имя файла M:\Новые оцифровки\02 Вячеслав Бутусов Эта музыка будет вечной.wav
     Пиковый уровень 99.4 %
     Скорость извлечения 1.5 X
     Качество трека 99.9 %
     CRC теста 579B23B5
     CRC копии 579B23B5
     Копирование... OK
Трек  3
     Имя файла M:\Новые оцифровки\03 Вячеслав Бутусов Одинокая птица.wav
     Подозрительная позиция 0:01:15
     Пиковый уровень 100.0 %
     Скорость извлечения 1.5 X
     Качество трека 99.8 %
     CRC теста 0821E211
     CRC копии 39194FD3
     Копирование завершено
Трек  4
     Имя файла M:\Новые оцифровки\04 Вячеслав Бутусов Взгляд с экрана.wav
     Пиковый уровень 99.6 %
     Скорость извлечения 1.9 X
     Качество трека 99.9 %
     CRC теста 061F4F26
     CRC копии 061F4F26
     Копирование... OK
Трек  5
     Имя файла M:\Новые оцифровки\05 Вячеслав Бутусов Казанова.wav
     Пиковый уровень 100.0 %
     Скорость извлечения 2.6 X
     Качество трека 100.0 %
     CRC теста BF8BC554
     CRC копии D80707F5
     Копирование... OK
Трек  6
     Имя файла M:\Новые оцифровки\06 Вячеслав Бутусов Люди.wav
     Пиковый уровень 100.0 %
     Скорость извлечения 2.5 X
     Качество трека 99.9 %
     CRC теста F079B780
     CRC копии F079B780
     Копирование... OK
Трек  7
     Имя файла M:\Новые оцифровки\07 Вячеслав Бутусов Титаник.wav
     Пиковый уровень 99.4 %
     Скорость извлечения 2.9 X
     Качество трека 100.0 %
     CRC теста B2E4E63A
     CRC копии B2E4E63A
     Копирование... OK
Трек  8
     Имя файла M:\Новые оцифровки\08 Вячеслав Бутусов Синоптики.wav
     Пиковый уровень 100.0 %
     Скорость извлечения 3.1 X
     Качество трека 100.0 %
     CRC теста B5DA55AE
     CRC копии B5DA55AE
     Копирование... OK
Трек  9
     Имя файла M:\Новые оцифровки\09 Вячеслав Бутусов Доктор твоего тела.wav
     Пиковый уровень 100.0 %
     Скорость извлечения 2.9 X
     Качество трека 99.9 %
     CRC теста 0322A865
     CRC копии 0322A865
     Копирование... OK
Трек 10
     Имя файла M:\Новые оцифровки\10 Вячеслав Бутусов Бриллиантовые дороги.wav
     Пиковый уровень 98.3 %
     Скорость извлечения 3.4 X
     Качество трека 100.0 %
     CRC теста 681650F7
     CRC копии 681650F7
     Копирование... OK
Трек 11
     Имя файла M:\Новые оцифровки\11 Вячеслав Бутусов Дыхание.wav
     Пиковый уровень 100.0 %
     Скорость извлечения 3.5 X
     Качество трека 100.0 %
     CRC теста B64DB81E
     CRC копии B64DB81E
     Копирование... OK
Трек 12
     Имя файла M:\Новые оцифровки\12 Вячеслав Бутусов Скованные одной цепью.wav
     Пиковый уровень 98.3 %
     Скорость извлечения 2.7 X
     Качество трека 99.8 %
     CRC теста 3F58348E
     CRC копии DFE98B62
     Копирование... OK
Трек 13
     Имя файла M:\Новые оцифровки\13 Вячеслав Бутусов Я хочу быть с тобой.wav
     Пиковый уровень 99.5 %
     Скорость извлечения 3.5 X
     Качество трека 99.9 %
     CRC теста 84B2C252
     CRC копии C113668E
     Копирование... OK
Трек 14
     Имя файла M:\Новые оцифровки\14 Вячеслав Бутусов Прощальное письмо.wav
     Пиковый уровень 99.6 %
     Скорость извлечения 3.8 X
     Качество трека 100.0 %
     CRC теста AEEA7CA3
     CRC копии D4C6DF09
     Копирование... OK
Были ошибки
Конец отчёта
Код:
REM GENRE Rock
REM DATE 2017
REM DISCID BB0F100E
REM COMMENT "ExactAudioCopy v1.0b3"
PERFORMER "Вячеслав Бутусов"
TITLE "Гудбай Америка"
FILE "01 Вячеслав Бутусов Intro.flac" WAVE
  TRACK 01 AUDIO
    TITLE "Intro"
    PERFORMER "Вячеслав Бутусов"
    INDEX 01 00:00:00
FILE "02 Вячеслав Бутусов Эта музыка будет вечной.flac" WAVE
  TRACK 02 AUDIO
    TITLE "Эта музыка будет вечной"
    PERFORMER "Вячеслав Бутусов"
    INDEX 01 00:00:00
FILE "03 Вячеслав Бутусов Одинокая птица.flac" WAVE
  TRACK 03 AUDIO
    TITLE "Одинокая птица"
    PERFORMER "Вячеслав Бутусов"
    INDEX 01 00:00:00
FILE "04 Вячеслав Бутусов Взгляд с экрана.flac" WAVE
  TRACK 04 AUDIO
    TITLE "Взгляд с экрана"
    PERFORMER "Вячеслав Бутусов"
    INDEX 01 00:00:00
FILE "05 Вячеслав Бутусов Казанова.flac" WAVE
  TRACK 05 AUDIO
    TITLE "Казанова"
    PERFORMER "Вячеслав Бутусов"
    INDEX 01 00:00:00
FILE "06 Вячеслав Бутусов Люди.flac" WAVE
  TRACK 06 AUDIO
    TITLE "Люди"
    PERFORMER "Вячеслав Бутусов"
    INDEX 01 00:00:00
FILE "07 Вячеслав Бутусов Титаник.flac" WAVE
  TRACK 07 AUDIO
    TITLE "Титаник"
    PERFORMER "Вячеслав Бутусов"
    INDEX 01 00:00:00
FILE "08 Вячеслав Бутусов Синоптики.flac" WAVE
  TRACK 08 AUDIO
    TITLE "Синоптики"
    PERFORMER "Вячеслав Бутусов"
    INDEX 01 00:00:00
FILE "09 Вячеслав Бутусов Доктор твоего тела.flac" WAVE
  TRACK 09 AUDIO
    TITLE "Доктор твоего тела"
    PERFORMER "Вячеслав Бутусов"
    INDEX 01 00:00:00
FILE "10 Вячеслав Бутусов Бриллиантовые дороги.flac" WAVE
  TRACK 10 AUDIO
    TITLE "Бриллиантовые дороги"
    PERFORMER "Вячеслав Бутусов"
    INDEX 01 00:00:00
FILE "11 Вячеслав Бутусов Дыхание.flac" WAVE
  TRACK 11 AUDIO
    TITLE "Дыхание"
    PERFORMER "Вячеслав Бутусов"
    INDEX 01 00:00:00
FILE "12 Вячеслав Бутусов Скованные одной цепью.flac" WAVE
  TRACK 12 AUDIO
    TITLE "Скованные одной цепью"
    PERFORMER "Вячеслав Бутусов"
    INDEX 01 00:00:00
FILE "13 Вячеслав Бутусов Я хочу быть с тобой.flac" WAVE
  TRACK 13 AUDIO
    TITLE "Я хочу быть с тобой"
    PERFORMER "Вячеслав Бутусов"
    INDEX 01 00:00:00
FILE "14 Вячеслав Бутусов Прощальное письмо.flac" WAVE
  TRACK 14 AUDIO
    TITLE "Прощальное письмо"
    PERFORMER "Вячеслав Бутусов"
    INDEX 01 00:00:00
--
Download / Скачать

Хотите скачать бесплатно? Зарегистрируйтесь на сайте (ссылка на регистрацию). Pirat.ca - самый быстрый торрент трекер в рунете!

Как скачивать  ·   Что такое торрент  ·   Рейтинг и ограничения

zvernight

Гроза морей

Пост 21-Дек-2017 04:45 (спустя 5 дней)

[Q] 

Альбом супер, трек "люди" - особенно.
[Профиль]  [ЛС] 
Показать сообщения:    
Ответить на тему

Текущее время: Сегодня 17:35

Часовой пояс: GMT + 4



Вы не можете начинать темы
Вы не можете отвечать на сообщения
Вы не можете редактировать свои сообщения
Вы не можете удалять свои сообщения
Вы не можете голосовать в опросах
Вы не можете прикреплять файлы к сообщениям
Вы не можете скачивать файлы

Майнать ▼