(Techno, Hardstyle, Dance, Classical) Scooter - 100% Scooter - 25 Years Wild & Wicked (Limited Edition)(5CD) - 2017 [FLAC, tracks +.cue, lossless]

Ответить на тему
 
Автор
Сообщение

Пост 24-Дек-2017 16:47

[Q] 

sergej644

-Scooter - 100% Scooter - 25 Years Wild & Wicked (Limited Edition)(5CD)--
Год издания: 2017
Страна: Germany
Жанр: Techno, Hardstyle, Dance, Classical
Продолжительность: 05:27:16-Лейбл издания: Sheffield Tunes
Страна-выпуска диска: Germany -Формат: FLAC
Битрейт аудио: Lossless
Тип рипа: tracks +.cue
Наличие сканов в содержимом раздачи: да
-

01. The Logical Song (3:54)
02. How Much Is The Fish? (3:47)
03. One (Always Hardcore) (3:50)
04. Move Your Ass (3:55)
05. Friends (3:48)
06. Hyper Hyper (3:33)
07. Call Me Manana (3:42)
08. Fuck The Millenium (4:13)
09. Back In The U.K. (3:25)
10. No Fate (3:43)
11. Jumping All Over The World (3:46)
12. The Age Of Love (3:52)
13. Aiii Shot The DJ (3:32)
14. J'adore Hardcore (3:49)
15. 4 AM (3:18)
16. I'm Lonely (3:33)
17. Army Of Hardcore (2:58)
18. We Are The Greatest (3:29)
19. Can't Stop The Hardcore (2:47)
20. I'm Your Pusher (3:48)
21. In Rave We Trust - Amateur Hour (Anthem Mix) (3:25)

01. Nessaja (3:28)
02. Maria (I Like It Loud) (3:42)
03. The Question Is What Is The Question (3:46)
04. Weekend! (3:36)
05. Mary Got No Lamb (3:28)
06. Bigroom Blitz (3:07)
07. Faster Harder Scooter (3:48)
08. I'm Raving (3:36)
09. Posse (I Need You On The Floor) (3:52)
10. Rebel Yell (3:41)
11. Jigga Jigga! (3:53)
12. Apache Rocks The Bottom! (3:46)
13. The Sound Above My Hair (3:36)
14. 999 (Call The Police) (3:38)
15. Ti Sento (3:55)
16. C'est Bleu (feat. Vicky Leandros) (3:12)
17. Hello! (Good To Be Back) (3:31)
18. Stuck On Replay (3:10)
19. Today (Scooter And Vassy) (3:28)
20. It's A Biz (Ain't Nobody) (3:23)
21. I Was Made For Lovin' You (3:33)

01. Endless Summer (3:47)
02. Fire (3:31)
03. The Night (3:23)
04. Bora Bora Bora (3:12)
05. Oi (3:12)
06. Lass Uns Tanzen (3:44)
07. My Gabber (feat. Jebroer) (2:54)
08. Jump That Rock (Whatever You Want feat. Status Quo) (3:24)
09. Radiate (Spy Version feat. Vassy) (3:05)
10. Riot (3:08)
11. And No Matches (3:33)
12. David Doesn't Eat (3:39)
13. Friends Turbo (3:23)
14. Break It Up (3:39)
15. Shake That (3:18)
16. Suavemente (3:38)
17. The Only One (3:33)
18. She's The Sun (3:47)
19. Let Me Be Your Valentine (3:50)
20. Behind The Cow (3:36)
21. Vallee De Larmes (4:36)

01. Olga Scheps - 4 AM (3:03)
02. Olga Scheps - One (Always Hardcore) (3:54)
03. Olga Scheps - Friends (2:17)
04. Olga Scheps - How Much Is The Fish (3:36)
05. Olga Scheps - I'm Lonely (4:47)
06. Olga Scheps - The Logical Song (5:03)
07. Olga Scheps - Nessaja (4:32)
08. Olga Scheps - Weekend! (3:44)
09. Olga Scheps - Mary Got No Lamb (3:39)
10. Olga Scheps - Maria (I Like It Loud) (2:05)
11. Olga Scheps - Bigroom Blitz (1:58)

01. Maria (I Like It Loud)(R.I.O. Remix) (1:27)
02. Bigroom Blitz (Scooter Remix) (1:13)
03. Today (Scooter Remix) (1:20)
04. Opium (1:27)
05. The Only Club (1:40)
06. How Much Is The Fish? (Tony Junior Remix) (1:14)
07. Mary Got No Lamb (Arena Mix) (1:33)
08. In Rave We Trust (Anthem Club Mix) (1:38)
09. Kashmir (1:23)
10. Vallee De Larmes (1:34)
11. Frequent Traveller (1:13)
12. Metropolis (1:50)
13. Devil Drums (1:42)
14. Trance-Atlantic (2:03)
15. Way Up North (2:58)
16. Turn Up That Blaster (1:23)
17. Sunrise (Here I Am) (2:30)
18. Main Floor (1:36)
19. Acid Bomb (1:47)
20. Level One (1:07)
21. Giant's Causeway (1:37)
22. A Little Bit Too Fast (1:07)
23. Soul Train (1:37)
24. The Pusher 2 (2:09)
25. Lighten Up The Sky (2:33)
26. Rhapsody In E (1:53)
27. Coldwater Canyon (1:50)
28. Back In Time (2:38)
29. The First Time (1:24)
30. Stuttgart (2:00)
31. Bramfeld (2:36)
32. Unity Without Words (Party II) (2:43)
33. Awekening (3:48)
34. Crank It Up (2:57)
-
Код:
Exact Audio Copy V1.3 from 2. September 2016
EAC extraction logfile from 16. December 2017, 14:39
Scooter / 100% Scooter
Used drive  : PLEXTOR DVDR   PX-891SAF   Adapter: 1  ID: 0
Read mode               : Secure
Utilize accurate stream : Yes
Defeat audio cache      : Yes
Make use of C2 pointers : No
Read offset correction                      : 6
Overread into Lead-In and Lead-Out          : No
Fill up missing offset samples with silence : Yes
Delete leading and trailing silent blocks   : No
Null samples used in CRC calculations       : Yes
Used interface                              : Native Win32 interface for Win NT & 2000
Gap handling                                : Appended to previous track
Used output format              : User Defined Encoder
Selected bitrate                : 1024 kBit/s
Quality                         : High
Add ID3 tag                     : No
Command line compressor         : C:\Program Files (x86)\Exact Audio Copy\Flac\flac.exe
Additional command line options : -0 -V -T "ARTIST=%artist%" -T "TITLE=%title%" -T "ALBUM=%albumtitle%" -T "DATE=%year%" -T "TRACKNUMBER=%tracknr%" -T "TOTALTRACKS=%numtracks%" -T "GENRE=%genre%" -T "COMMENT=Naftamusic Release!" %source%
TOC of the extracted CD
     Track |   Start  |  Length  | Start sector | End sector
    ---------------------------------------------------------
        1  |  0:00.00 |  3:54.10 |         0    |    17559
        2  |  3:54.10 |  3:46.54 |     17560    |    34563
        3  |  7:40.64 |  3:50.21 |     34564    |    51834
        4  | 11:31.10 |  3:54.58 |     51835    |    69442
        5  | 15:25.68 |  3:47.40 |     69443    |    86507
        6  | 19:13.33 |  3:33.00 |     86508    |   102482
        7  | 22:46.33 |  3:42.07 |    102483    |   119139
        8  | 26:28.40 |  4:12.63 |    119140    |   138102
        9  | 30:41.28 |  3:24.65 |    138103    |   153467
       10  | 34:06.18 |  3:42.70 |    153468    |   170187
       11  | 37:49.13 |  3:46.16 |    170188    |   187153
       12  | 41:35.29 |  3:52.00 |    187154    |   204553
       13  | 45:27.29 |  3:31.48 |    204554    |   220426
       14  | 48:59.02 |  3:49.30 |    220427    |   237631
       15  | 52:48.32 |  3:18.28 |    237632    |   252509
       16  | 56:06.60 |  3:32.74 |    252510    |   268483
       17  | 59:39.59 |  2:58.25 |    268484    |   281858
       18  | 62:38.09 |  3:29.20 |    281859    |   297553
       19  | 66:07.29 |  2:46.47 |    297554    |   310050
       20  | 68:54.01 |  3:48.06 |    310051    |   327156
       21  | 72:42.07 |  3:25.31 |    327157    |   342562
Track  1
     Filename E:\Nafta Releases\Scooter - 100% Scooter 25 Years Wild & Wicked (Limited Edition 5 CD 2017)[FLAC] - Naftamusic\CD 1\01 - The Logical Song.wav
     Pre-gap length  0:00:02.00
     Peak level 100.0 %
     Extraction speed 2.9 X
     Track quality 100.0 %
     Test CRC 85FDBA4A
     Copy CRC 85FDBA4A
     Track not present in AccurateRip database
     Copy OK
Track  2
     Filename E:\Nafta Releases\Scooter - 100% Scooter 25 Years Wild & Wicked (Limited Edition 5 CD 2017)[FLAC] - Naftamusic\CD 1\02 - How Much Is The Fish.wav
     Peak level 90.8 %
     Extraction speed 2.5 X
     Track quality 99.9 %
     Test CRC D722DC39
     Copy CRC D722DC39
     Track not present in AccurateRip database
     Copy OK
Track  3
     Filename E:\Nafta Releases\Scooter - 100% Scooter 25 Years Wild & Wicked (Limited Edition 5 CD 2017)[FLAC] - Naftamusic\CD 1\03 - One (Always Hardcore).wav
     Pre-gap length  0:00:00.50
     Peak level 82.5 %
     Extraction speed 3.4 X
     Track quality 100.0 %
     Test CRC 8297673D
     Copy CRC 8297673D
     Track not present in AccurateRip database
     Copy OK
Track  4
     Filename E:\Nafta Releases\Scooter - 100% Scooter 25 Years Wild & Wicked (Limited Edition 5 CD 2017)[FLAC] - Naftamusic\CD 1\04 - Move Your Ass.wav
     Peak level 84.1 %
     Extraction speed 3.6 X
     Track quality 100.0 %
     Test CRC 988ABE19
     Copy CRC 988ABE19
     Track not present in AccurateRip database
     Copy OK
Track  5
     Filename E:\Nafta Releases\Scooter - 100% Scooter 25 Years Wild & Wicked (Limited Edition 5 CD 2017)[FLAC] - Naftamusic\CD 1\05 - Friends.wav
     Peak level 100.0 %
     Extraction speed 3.8 X
     Track quality 100.0 %
     Test CRC 41440F2E
     Copy CRC 41440F2E
     Track not present in AccurateRip database
     Copy OK
Track  6
     Filename E:\Nafta Releases\Scooter - 100% Scooter 25 Years Wild & Wicked (Limited Edition 5 CD 2017)[FLAC] - Naftamusic\CD 1\06 - Hyper Hyper.wav
     Peak level 92.5 %
     Extraction speed 3.9 X
     Track quality 100.0 %
     Test CRC 42FA453D
     Copy CRC 42FA453D
     Track not present in AccurateRip database
     Copy OK
Track  7
     Filename E:\Nafta Releases\Scooter - 100% Scooter 25 Years Wild & Wicked (Limited Edition 5 CD 2017)[FLAC] - Naftamusic\CD 1\07 - Call Me Manana.wav
     Pre-gap length  0:00:00.68
     Peak level 94.4 %
     Extraction speed 3.3 X
     Track quality 99.9 %
     Test CRC 4B3175CC
     Copy CRC 4B3175CC
     Track not present in AccurateRip database
     Copy OK
Track  8
     Filename E:\Nafta Releases\Scooter - 100% Scooter 25 Years Wild & Wicked (Limited Edition 5 CD 2017)[FLAC] - Naftamusic\CD 1\08 - Fuck The Millenium.wav
     Pre-gap length  0:00:02.09
     Peak level 100.0 %
     Extraction speed 4.4 X
     Track quality 100.0 %
     Test CRC 2D0CF58C
     Copy CRC 2D0CF58C
     Track not present in AccurateRip database
     Copy OK
Track  9
     Filename E:\Nafta Releases\Scooter - 100% Scooter 25 Years Wild & Wicked (Limited Edition 5 CD 2017)[FLAC] - Naftamusic\CD 1\09 - Back In The U.K..wav
     Pre-gap length  0:00:01.18
     Peak level 74.9 %
     Extraction speed 3.5 X
     Track quality 99.9 %
     Test CRC B70A1FFC
     Copy CRC B70A1FFC
     Track not present in AccurateRip database
     Copy OK
Track 10
     Filename E:\Nafta Releases\Scooter - 100% Scooter 25 Years Wild & Wicked (Limited Edition 5 CD 2017)[FLAC] - Naftamusic\CD 1\10 - No Fate.wav
     Pre-gap length  0:00:01.07
     Peak level 77.9 %
     Extraction speed 4.7 X
     Track quality 100.0 %
     Test CRC A320CF2B
     Copy CRC A320CF2B
     Track not present in AccurateRip database
     Copy OK
Track 11
     Filename E:\Nafta Releases\Scooter - 100% Scooter 25 Years Wild & Wicked (Limited Edition 5 CD 2017)[FLAC] - Naftamusic\CD 1\11 - Jumping All Over The World.wav
     Pre-gap length  0:00:01.31
     Peak level 94.4 %
     Extraction speed 4.8 X
     Track quality 100.0 %
     Test CRC DE7B6684
     Copy CRC DE7B6684
     Track not present in AccurateRip database
     Copy OK
Track 12
     Filename E:\Nafta Releases\Scooter - 100% Scooter 25 Years Wild & Wicked (Limited Edition 5 CD 2017)[FLAC] - Naftamusic\CD 1\12 - The Age Of Love.wav
     Pre-gap length  0:00:00.44
     Peak level 90.8 %
     Extraction speed 5.0 X
     Track quality 100.0 %
     Test CRC E2E57373
     Copy CRC E2E57373
     Track not present in AccurateRip database
     Copy OK
Track 13
     Filename E:\Nafta Releases\Scooter - 100% Scooter 25 Years Wild & Wicked (Limited Edition 5 CD 2017)[FLAC] - Naftamusic\CD 1\13 - Aiii Shot The DJ.wav
     Pre-gap length  0:00:01.69
     Peak level 83.1 %
     Extraction speed 5.1 X
     Track quality 100.0 %
     Test CRC 4B9664DA
     Copy CRC 4B9664DA
     Track not present in AccurateRip database
     Copy OK
Track 14
     Filename E:\Nafta Releases\Scooter - 100% Scooter 25 Years Wild & Wicked (Limited Edition 5 CD 2017)[FLAC] - Naftamusic\CD 1\14 - J'adore Hardcore.wav
     Pre-gap length  0:00:01.03
     Peak level 81.0 %
     Extraction speed 4.1 X
     Track quality 99.9 %
     Test CRC 1AD984B9
     Copy CRC 1AD984B9
     Track not present in AccurateRip database
     Copy OK
Track 15
     Filename E:\Nafta Releases\Scooter - 100% Scooter 25 Years Wild & Wicked (Limited Edition 5 CD 2017)[FLAC] - Naftamusic\CD 1\15 - 4 AM.wav
     Pre-gap length  0:00:01.20
     Peak level 81.0 %
     Extraction speed 5.3 X
     Track quality 100.0 %
     Test CRC 28693BD3
     Copy CRC 28693BD3
     Track not present in AccurateRip database
     Copy OK
Track 16
     Filename E:\Nafta Releases\Scooter - 100% Scooter 25 Years Wild & Wicked (Limited Edition 5 CD 2017)[FLAC] - Naftamusic\CD 1\16 - I'm Lonely.wav
     Pre-gap length  0:00:00.55
     Peak level 82.5 %
     Extraction speed 5.4 X
     Track quality 100.0 %
     Test CRC 224E0E12
     Copy CRC 224E0E12
     Track not present in AccurateRip database
     Copy OK
Track 17
     Filename E:\Nafta Releases\Scooter - 100% Scooter 25 Years Wild & Wicked (Limited Edition 5 CD 2017)[FLAC] - Naftamusic\CD 1\17 - Army Of Hardcore.wav
     Pre-gap length  0:00:01.45
     Peak level 82.1 %
     Extraction speed 5.4 X
     Track quality 100.0 %
     Test CRC 6E0A4FBA
     Copy CRC 6E0A4FBA
     Track not present in AccurateRip database
     Copy OK
Track 18
     Filename E:\Nafta Releases\Scooter - 100% Scooter 25 Years Wild & Wicked (Limited Edition 5 CD 2017)[FLAC] - Naftamusic\CD 1\18 - We Are The Greatest.wav
     Pre-gap length  0:00:00.68
     Peak level 98.0 %
     Extraction speed 5.6 X
     Track quality 100.0 %
     Test CRC 3A7A94A6
     Copy CRC 3A7A94A6
     Track not present in AccurateRip database
     Copy OK
Track 19
     Filename E:\Nafta Releases\Scooter - 100% Scooter 25 Years Wild & Wicked (Limited Edition 5 CD 2017)[FLAC] - Naftamusic\CD 1\19 - Can't Stop The Hardcore.wav
     Pre-gap length  0:00:01.59
     Peak level 82.1 %
     Extraction speed 4.1 X
     Track quality 99.9 %
     Test CRC 03F2A3D1
     Copy CRC 03F2A3D1
     Track not present in AccurateRip database
     Copy OK
Track 20
     Filename E:\Nafta Releases\Scooter - 100% Scooter 25 Years Wild & Wicked (Limited Edition 5 CD 2017)[FLAC] - Naftamusic\CD 1\20 - I'm Your Pusher.wav
     Pre-gap length  0:00:01.30
     Peak level 94.4 %
     Extraction speed 4.5 X
     Track quality 99.9 %
     Test CRC DBFE83FC
     Copy CRC DBFE83FC
     Track not present in AccurateRip database
     Copy OK
Track 21
     Filename E:\Nafta Releases\Scooter - 100% Scooter 25 Years Wild & Wicked (Limited Edition 5 CD 2017)[FLAC] - Naftamusic\CD 1\21 - In Rave We Trust - Amateur Hour (Anthem Mix).wav
     Pre-gap length  0:00:01.69
     Peak level 99.9 %
     Extraction speed 5.9 X
     Track quality 100.0 %
     Test CRC A188C531
     Copy CRC A188C531
     Track not present in AccurateRip database
     Copy OK
None of the tracks are present in the AccurateRip database
No errors occurred
End of status report
Код:
Exact Audio Copy V1.3 from 2. September 2016
EAC extraction logfile from 16. December 2017, 16:01
Scooter / 100% Scooter
Used drive  : PLEXTOR DVDR   PX-891SAF   Adapter: 1  ID: 0
Read mode               : Secure
Utilize accurate stream : Yes
Defeat audio cache      : Yes
Make use of C2 pointers : No
Read offset correction                      : 6
Overread into Lead-In and Lead-Out          : No
Fill up missing offset samples with silence : Yes
Delete leading and trailing silent blocks   : No
Null samples used in CRC calculations       : Yes
Used interface                              : Native Win32 interface for Win NT & 2000
Gap handling                                : Appended to previous track
Used output format              : User Defined Encoder
Selected bitrate                : 1024 kBit/s
Quality                         : High
Add ID3 tag                     : No
Command line compressor         : C:\Program Files (x86)\Exact Audio Copy\Flac\flac.exe
Additional command line options : -0 -V -T "ARTIST=%artist%" -T "TITLE=%title%" -T "ALBUM=%albumtitle%" -T "DATE=%year%" -T "TRACKNUMBER=%tracknr%" -T "TOTALTRACKS=%numtracks%" -T "GENRE=%genre%" -T "COMMENT=Naftamusic Release!" %source%
TOC of the extracted CD
     Track |   Start  |  Length  | Start sector | End sector
    ---------------------------------------------------------
        1  |  0:00.00 |  3:28.35 |         0    |    15634
        2  |  3:28.35 |  3:42.08 |     15635    |    32292
        3  |  7:10.43 |  3:46.22 |     32293    |    49264
        4  | 10:56.65 |  3:35.73 |     49265    |    65462
        5  | 14:32.63 |  3:27.66 |     65463    |    81053
        6  | 18:00.54 |  3:07.29 |     81054    |    95107
        7  | 21:08.08 |  3:47.38 |     95108    |   112170
        8  | 24:55.46 |  3:36.18 |    112171    |   128388
        9  | 28:31.64 |  3:51.39 |    128389    |   145752
       10  | 32:23.28 |  3:41.12 |    145753    |   162339
       11  | 36:04.40 |  3:53.35 |    162340    |   179849
       12  | 39:58.00 |  3:45.65 |    179850    |   196789
       13  | 43:43.65 |  3:36.22 |    196790    |   213011
       14  | 47:20.12 |  3:37.39 |    213012    |   229325
       15  | 50:57.51 |  3:55.30 |    229326    |   246980
       16  | 54:53.06 |  3:11.66 |    246981    |   261371
       17  | 58:04.72 |  3:30.60 |    261372    |   277181
       18  | 61:35.57 |  3:09.60 |    277182    |   291416
       19  | 64:45.42 |  3:28.13 |    291417    |   307029
       20  | 68:13.55 |  3:22.60 |    307030    |   322239
       21  | 71:36.40 |  3:32.67 |    322240    |   338206
Track  1
     Filename E:\Nafta Releases\Scooter - 100% Scooter 25 Years Wild & Wicked (Limited Edition 5 CD 2017)[FLAC] - Naftamusic\CD 2\01 - Nessaja.wav
     Pre-gap length  0:00:02.00
     Peak level 100.0 %
     Extraction speed 2.2 X
     Track quality 99.9 %
     Test CRC E6EF065C
     Copy CRC E6EF065C
     Track not present in AccurateRip database
     Copy OK
Track  2
     Filename E:\Nafta Releases\Scooter - 100% Scooter 25 Years Wild & Wicked (Limited Edition 5 CD 2017)[FLAC] - Naftamusic\CD 2\02 - Maria (I Like It Loud).wav
     Peak level 94.4 %
     Extraction speed 2.4 X
     Track quality 99.9 %
     Test CRC C8C479CA
     Copy CRC C8C479CA
     Track not present in AccurateRip database
     Copy OK
Track  3
     Filename E:\Nafta Releases\Scooter - 100% Scooter 25 Years Wild & Wicked (Limited Edition 5 CD 2017)[FLAC] - Naftamusic\CD 2\03 - The Question Is What Is The Question.wav
     Pre-gap length  0:00:01.67
     Peak level 89.6 %
     Extraction speed 3.4 X
     Track quality 100.0 %
     Test CRC 906DC366
     Copy CRC 906DC366
     Track not present in AccurateRip database
     Copy OK
Track  4
     Filename E:\Nafta Releases\Scooter - 100% Scooter 25 Years Wild & Wicked (Limited Edition 5 CD 2017)[FLAC] - Naftamusic\CD 2\04 - Weekend!.wav
     Peak level 100.0 %
     Extraction speed 3.5 X
     Track quality 100.0 %
     Test CRC C8D8B9E5
     Copy CRC C8D8B9E5
     Track not present in AccurateRip database
     Copy OK
Track  5
     Filename E:\Nafta Releases\Scooter - 100% Scooter 25 Years Wild & Wicked (Limited Edition 5 CD 2017)[FLAC] - Naftamusic\CD 2\05 - Mary Got No Lamb.wav
     Pre-gap length  0:00:00.35
     Peak level 88.4 %
     Extraction speed 3.7 X
     Track quality 100.0 %
     Test CRC 075A3BC0
     Copy CRC 075A3BC0
     Track not present in AccurateRip database
     Copy OK
Track  6
     Filename E:\Nafta Releases\Scooter - 100% Scooter 25 Years Wild & Wicked (Limited Edition 5 CD 2017)[FLAC] - Naftamusic\CD 2\06 - Bigroom Blitz.wav
     Pre-gap length  0:00:01.01
     Peak level 99.3 %
     Extraction speed 3.8 X
     Track quality 100.0 %
     Test CRC 2324F5B4
     Copy CRC 2324F5B4
     Track not present in AccurateRip database
     Copy OK
Track  7
     Filename E:\Nafta Releases\Scooter - 100% Scooter 25 Years Wild & Wicked (Limited Edition 5 CD 2017)[FLAC] - Naftamusic\CD 2\07 - Faster Harder Scooter.wav
     Pre-gap length  0:00:00.28
     Peak level 98.0 %
     Extraction speed 4.1 X
     Track quality 100.0 %
     Test CRC 9389B99F
     Copy CRC 9389B99F
     Track not present in AccurateRip database
     Copy OK
Track  8
     Filename E:\Nafta Releases\Scooter - 100% Scooter 25 Years Wild & Wicked (Limited Edition 5 CD 2017)[FLAC] - Naftamusic\CD 2\08 - I'm Raving.wav
     Pre-gap length  0:00:01.02
     Peak level 86.1 %
     Extraction speed 4.2 X
     Track quality 100.0 %
     Test CRC 2A3FBB26
     Copy CRC 2A3FBB26
     Track not present in AccurateRip database
     Copy OK
Track  9
     Filename E:\Nafta Releases\Scooter - 100% Scooter 25 Years Wild & Wicked (Limited Edition 5 CD 2017)[FLAC] - Naftamusic\CD 2\09 - Posse (I Need You On The Floor).wav
     Peak level 82.6 %
     Extraction speed 4.4 X
     Track quality 100.0 %
     Test CRC BB617921
     Copy CRC BB617921
     Track not present in AccurateRip database
     Copy OK
Track 10
     Filename E:\Nafta Releases\Scooter - 100% Scooter 25 Years Wild & Wicked (Limited Edition 5 CD 2017)[FLAC] - Naftamusic\CD 2\10 - Rebel Yell.wav
     Pre-gap length  0:00:00.74
     Peak level 95.5 %
     Extraction speed 4.5 X
     Track quality 100.0 %
     Test CRC 648028A9
     Copy CRC 648028A9
     Track not present in AccurateRip database
     Copy OK
Track 11
     Filename E:\Nafta Releases\Scooter - 100% Scooter 25 Years Wild & Wicked (Limited Edition 5 CD 2017)[FLAC] - Naftamusic\CD 2\11 - Jigga Jigga!.wav
     Pre-gap length  0:00:00.56
     Peak level 93.9 %
     Extraction speed 4.7 X
     Track quality 100.0 %
     Test CRC C395E39D
     Copy CRC C395E39D
     Track not present in AccurateRip database
     Copy OK
Track 12
     Filename E:\Nafta Releases\Scooter - 100% Scooter 25 Years Wild & Wicked (Limited Edition 5 CD 2017)[FLAC] - Naftamusic\CD 2\12 - Apache Rocks The Bottom!.wav
     Pre-gap length  0:00:00.39
     Peak level 99.5 %
     Extraction speed 4.9 X
     Track quality 100.0 %
     Test CRC 78138679
     Copy CRC 78138679
     Track not present in AccurateRip database
     Copy OK
Track 13
     Filename E:\Nafta Releases\Scooter - 100% Scooter 25 Years Wild & Wicked (Limited Edition 5 CD 2017)[FLAC] - Naftamusic\CD 2\13 - The Sound Above My Hair.wav
     Pre-gap length  0:00:01.00
     Peak level 97.7 %
     Extraction speed 5.0 X
     Track quality 100.0 %
     Test CRC FA6DE933
     Copy CRC FA6DE933
     Track not present in AccurateRip database
     Copy OK
Track 14
     Filename E:\Nafta Releases\Scooter - 100% Scooter 25 Years Wild & Wicked (Limited Edition 5 CD 2017)[FLAC] - Naftamusic\CD 2\14 - 999 (Call The Police).wav
     Pre-gap length  0:00:01.15
     Peak level 99.3 %
     Extraction speed 5.1 X
     Track quality 100.0 %
     Test CRC 90946301
     Copy CRC 90946301
     Track not present in AccurateRip database
     Copy OK
Track 15
     Filename E:\Nafta Releases\Scooter - 100% Scooter 25 Years Wild & Wicked (Limited Edition 5 CD 2017)[FLAC] - Naftamusic\CD 2\15 - Ti Sento.wav
     Pre-gap length  0:00:01.57
     Peak level 100.0 %
     Extraction speed 4.1 X
     Track quality 99.9 %
     Test CRC 79290745
     Copy CRC 79290745
     Track not present in AccurateRip database
     Copy OK
Track 16
     Filename E:\Nafta Releases\Scooter - 100% Scooter 25 Years Wild & Wicked (Limited Edition 5 CD 2017)[FLAC] - Naftamusic\CD 2\16 - C'est Bleu (feat. Vicky Leandros).wav
     Pre-gap length  0:00:00.41
     Peak level 100.0 %
     Extraction speed 4.0 X
     Track quality 99.9 %
     Test CRC EBA2A19D
     Copy CRC EBA2A19D
     Track not present in AccurateRip database
     Copy OK
Track 17
     Filename E:\Nafta Releases\Scooter - 100% Scooter 25 Years Wild & Wicked (Limited Edition 5 CD 2017)[FLAC] - Naftamusic\CD 2\17 - Hello! (Good To Be Back).wav
     Pre-gap length  0:00:00.53
     Peak level 100.0 %
     Extraction speed 4.1 X
     Track quality 99.9 %
     Test CRC 16409387
     Copy CRC 16409387
     Track not present in AccurateRip database
     Copy OK
Track 18
     Filename E:\Nafta Releases\Scooter - 100% Scooter 25 Years Wild & Wicked (Limited Edition 5 CD 2017)[FLAC] - Naftamusic\CD 2\18 - Stuck On Replay.wav
     Pre-gap length  0:00:01.58
     Peak level 100.0 %
     Extraction speed 5.5 X
     Track quality 100.0 %
     Test CRC BBF9E1A4
     Copy CRC BBF9E1A4
     Track not present in AccurateRip database
     Copy OK
Track 19
     Filename E:\Nafta Releases\Scooter - 100% Scooter 25 Years Wild & Wicked (Limited Edition 5 CD 2017)[FLAC] - Naftamusic\CD 2\19 - Today (Scooter And Vassy).wav
     Pre-gap length  0:00:00.55
     Peak level 97.4 %
     Extraction speed 4.3 X
     Track quality 99.9 %
     Test CRC DABF6F2F
     Copy CRC DABF6F2F
     Track not present in AccurateRip database
     Copy OK
Track 20
     Filename E:\Nafta Releases\Scooter - 100% Scooter 25 Years Wild & Wicked (Limited Edition 5 CD 2017)[FLAC] - Naftamusic\CD 2\20 - It's A Biz (Ain't Nobody).wav
     Pre-gap length  0:00:00.60
     Peak level 85.8 %
     Extraction speed 5.7 X
     Track quality 100.0 %
     Test CRC A2EA5B29
     Copy CRC A2EA5B29
     Track not present in AccurateRip database
     Copy OK
Track 21
     Filename E:\Nafta Releases\Scooter - 100% Scooter 25 Years Wild & Wicked (Limited Edition 5 CD 2017)[FLAC] - Naftamusic\CD 2\21 - I Was Made For Lovin' You.wav
     Pre-gap length  0:00:00.57
     Peak level 94.4 %
     Extraction speed 5.8 X
     Track quality 100.0 %
     Test CRC A5EE652B
     Copy CRC A5EE652B
     Track not present in AccurateRip database
     Copy OK
None of the tracks are present in the AccurateRip database
No errors occurred
End of status report
Код:
Exact Audio Copy V1.3 from 2. September 2016
EAC extraction logfile from 16. December 2017, 16:49
Scooter / 100% Scooter
Used drive  : PLEXTOR DVDR   PX-891SAF   Adapter: 1  ID: 0
Read mode               : Secure
Utilize accurate stream : Yes
Defeat audio cache      : Yes
Make use of C2 pointers : No
Read offset correction                      : 6
Overread into Lead-In and Lead-Out          : No
Fill up missing offset samples with silence : Yes
Delete leading and trailing silent blocks   : No
Null samples used in CRC calculations       : Yes
Used interface                              : Native Win32 interface for Win NT & 2000
Gap handling                                : Appended to previous track
Used output format              : User Defined Encoder
Selected bitrate                : 1024 kBit/s
Quality                         : High
Add ID3 tag                     : No
Command line compressor         : C:\Program Files (x86)\Exact Audio Copy\Flac\flac.exe
Additional command line options : -0 -V -T "ARTIST=%artist%" -T "TITLE=%title%" -T "ALBUM=%albumtitle%" -T "DATE=%year%" -T "TRACKNUMBER=%tracknr%" -T "TOTALTRACKS=%numtracks%" -T "GENRE=%genre%" -T "COMMENT=Naftamusic Release!" %source%
TOC of the extracted CD
     Track |   Start  |  Length  | Start sector | End sector
    ---------------------------------------------------------
        1  |  0:00.00 |  3:46.41 |         0    |    16990
        2  |  3:46.41 |  3:31.11 |     16991    |    32826
        3  |  7:17.52 |  3:23.18 |     32827    |    48069
        4  | 10:40.70 |  3:12.08 |     48070    |    62477
        5  | 13:53.03 |  3:11.57 |     62478    |    76859
        6  | 17:04.60 |  3:44.18 |     76860    |    93677
        7  | 20:49.03 |  2:54.02 |     93678    |   106729
        8  | 23:43.05 |  3:23.63 |    106730    |   122017
        9  | 27:06.68 |  3:05.01 |    122018    |   135893
       10  | 30:11.69 |  3:07.46 |    135894    |   149964
       11  | 33:19.40 |  3:33.15 |    149965    |   165954
       12  | 36:52.55 |  3:38.62 |    165955    |   182366
       13  | 40:31.42 |  3:22.47 |    182367    |   197563
       14  | 43:54.14 |  3:39.15 |    197564    |   214003
       15  | 47:33.29 |  3:18.27 |    214004    |   228880
       16  | 50:51.56 |  3:38.10 |    228881    |   245240
       17  | 54:29.66 |  3:33.16 |    245241    |   261231
       18  | 58:03.07 |  3:46.49 |    261232    |   278230
       19  | 61:49.56 |  3:50.31 |    278231    |   295511
       20  | 65:40.12 |  3:36.12 |    295512    |   311723
       21  | 69:16.24 |  4:35.47 |    311724    |   332395
Track  1
     Filename E:\Nafta Releases\Scooter - 100% Scooter 25 Years Wild & Wicked (Limited Edition 5 CD 2017)[FLAC] - Naftamusic\CD 3\01 - Endless Summer.wav
     Pre-gap length  0:00:02.00
     Peak level 89.1 %
     Extraction speed 2.8 X
     Track quality 100.0 %
     Test CRC 1C016504
     Copy CRC 1C016504
     Track not present in AccurateRip database
     Copy OK
Track  2
     Filename E:\Nafta Releases\Scooter - 100% Scooter 25 Years Wild & Wicked (Limited Edition 5 CD 2017)[FLAC] - Naftamusic\CD 3\02 - Fire.wav
     Pre-gap length  0:00:01.71
     Peak level 82.2 %
     Extraction speed 2.4 X
     Track quality 99.9 %
     Test CRC A0B118BB
     Copy CRC A0B118BB
     Track not present in AccurateRip database
     Copy OK
Track  3
     Filename E:\Nafta Releases\Scooter - 100% Scooter 25 Years Wild & Wicked (Limited Edition 5 CD 2017)[FLAC] - Naftamusic\CD 3\03 - The Night.wav
     Pre-gap length  0:00:00.59
     Peak level 99.8 %
     Extraction speed 3.2 X
     Track quality 100.0 %
     Test CRC 6BD9799A
     Copy CRC 6BD9799A
     Track not present in AccurateRip database
     Copy OK
Track  4
     Filename E:\Nafta Releases\Scooter - 100% Scooter 25 Years Wild & Wicked (Limited Edition 5 CD 2017)[FLAC] - Naftamusic\CD 3\04 - Bora Bora Bora.wav
     Pre-gap length  0:00:01.08
     Peak level 99.9 %
     Extraction speed 3.4 X
     Track quality 100.0 %
     Test CRC 31EA92BE
     Copy CRC 31EA92BE
     Track not present in AccurateRip database
     Copy OK
Track  5
     Filename E:\Nafta Releases\Scooter - 100% Scooter 25 Years Wild & Wicked (Limited Edition 5 CD 2017)[FLAC] - Naftamusic\CD 3\05 - Oi.wav
     Peak level 80.3 %
     Extraction speed 3.6 X
     Track quality 100.0 %
     Test CRC 7870CAEC
     Copy CRC 7870CAEC
     Track not present in AccurateRip database
     Copy OK
Track  6
     Filename E:\Nafta Releases\Scooter - 100% Scooter 25 Years Wild & Wicked (Limited Edition 5 CD 2017)[FLAC] - Naftamusic\CD 3\06 - Lass Uns Tanzen.wav
     Pre-gap length  0:00:01.43
     Peak level 84.1 %
     Extraction speed 3.8 X
     Track quality 100.0 %
     Test CRC A2F0764D
     Copy CRC A2F0764D
     Track not present in AccurateRip database
     Copy OK
Track  7
     Filename E:\Nafta Releases\Scooter - 100% Scooter 25 Years Wild & Wicked (Limited Edition 5 CD 2017)[FLAC] - Naftamusic\CD 3\07 - My Gabber (feat. Jebroer).wav
     Pre-gap length  0:00:01.41
     Peak level 100.0 %
     Extraction speed 3.8 X
     Track quality 100.0 %
     Test CRC B48F6175
     Copy CRC B48F6175
     Track not present in AccurateRip database
     Copy OK
Track  8
     Filename E:\Nafta Releases\Scooter - 100% Scooter 25 Years Wild & Wicked (Limited Edition 5 CD 2017)[FLAC] - Naftamusic\CD 3\08 - Jump That Rock (Whatever You Want feat. Status Quo).wav
     Peak level 100.0 %
     Extraction speed 3.1 X
     Track quality 99.9 %
     Test CRC 710E910E
     Copy CRC 710E910E
     Track not present in AccurateRip database
     Copy OK
Track  9
     Filename E:\Nafta Releases\Scooter - 100% Scooter 25 Years Wild & Wicked (Limited Edition 5 CD 2017)[FLAC] - Naftamusic\CD 3\09 - Radiate (Spy Version feat. Vassy).wav
     Pre-gap length  0:00:01.29
     Peak level 79.3 %
     Extraction speed 4.2 X
     Track quality 100.0 %
     Test CRC 3465C6D8
     Copy CRC 3465C6D8
     Track not present in AccurateRip database
     Copy OK
Track 10
     Filename E:\Nafta Releases\Scooter - 100% Scooter 25 Years Wild & Wicked (Limited Edition 5 CD 2017)[FLAC] - Naftamusic\CD 3\10 - Riot.wav
     Pre-gap length  0:00:02.14
     Peak level 93.6 %
     Extraction speed 4.3 X
     Track quality 100.0 %
     Test CRC F720D9F3
     Copy CRC F720D9F3
     Track not present in AccurateRip database
     Copy OK
Track 11
     Filename E:\Nafta Releases\Scooter - 100% Scooter 25 Years Wild & Wicked (Limited Edition 5 CD 2017)[FLAC] - Naftamusic\CD 3\11 - And No Matches.wav
     Peak level 100.0 %
     Extraction speed 4.5 X
     Track quality 100.0 %
     Test CRC AA18F347
     Copy CRC AA18F347
     Track not present in AccurateRip database
     Copy OK
Track 12
     Filename E:\Nafta Releases\Scooter - 100% Scooter 25 Years Wild & Wicked (Limited Edition 5 CD 2017)[FLAC] - Naftamusic\CD 3\12 - David Doesn't Eat.wav
     Pre-gap length  0:00:01.68
     Peak level 99.9 %
     Extraction speed 4.7 X
     Track quality 100.0 %
     Test CRC E6910888
     Copy CRC E6910888
     Track not present in AccurateRip database
     Copy OK
Track 13
     Filename E:\Nafta Releases\Scooter - 100% Scooter 25 Years Wild & Wicked (Limited Edition 5 CD 2017)[FLAC] - Naftamusic\CD 3\13 - Friends Turbo.wav
     Pre-gap length  0:00:02.06
     Peak level 92.2 %
     Extraction speed 4.7 X
     Track quality 100.0 %
     Test CRC E6389CE9
     Copy CRC E6389CE9
     Track not present in AccurateRip database
     Copy OK
Track 14
     Filename E:\Nafta Releases\Scooter - 100% Scooter 25 Years Wild & Wicked (Limited Edition 5 CD 2017)[FLAC] - Naftamusic\CD 3\14 - Break It Up.wav
     Pre-gap length  0:00:01.62
     Peak level 89.1 %
     Extraction speed 4.9 X
     Track quality 100.0 %
     Test CRC AF4CF983
     Copy CRC AF4CF983
     Track not present in AccurateRip database
     Copy OK
Track 15
     Filename E:\Nafta Releases\Scooter - 100% Scooter 25 Years Wild & Wicked (Limited Edition 5 CD 2017)[FLAC] - Naftamusic\CD 3\15 - Shake That.wav
     Pre-gap length  0:00:01.47
     Peak level 99.4 %
     Extraction speed 5.1 X
     Track quality 100.0 %
     Test CRC 33F6713C
     Copy CRC 33F6713C
     Track not present in AccurateRip database
     Copy OK
Track 16
     Filename E:\Nafta Releases\Scooter - 100% Scooter 25 Years Wild & Wicked (Limited Edition 5 CD 2017)[FLAC] - Naftamusic\CD 3\16 - Suavemente.wav
     Pre-gap length  0:00:01.35
     Peak level 90.7 %
     Extraction speed 4.0 X
     Track quality 99.9 %
     Test CRC 9B2E8CD2
     Copy CRC 9B2E8CD2
     Track not present in AccurateRip database
     Copy OK
Track 17
     Filename E:\Nafta Releases\Scooter - 100% Scooter 25 Years Wild & Wicked (Limited Edition 5 CD 2017)[FLAC] - Naftamusic\CD 3\17 - The Only One.wav
     Pre-gap length  0:00:01.29
     Peak level 90.0 %
     Extraction speed 5.2 X
     Track quality 100.0 %
     Test CRC 1EDF089E
     Copy CRC 1EDF089E
     Track not present in AccurateRip database
     Copy OK
Track 18
     Filename E:\Nafta Releases\Scooter - 100% Scooter 25 Years Wild & Wicked (Limited Edition 5 CD 2017)[FLAC] - Naftamusic\CD 3\18 - She's The Sun.wav
     Pre-gap length  0:00:01.23
     Peak level 90.8 %
     Extraction speed 5.6 X
     Track quality 100.0 %
     Test CRC 2D946AE9
     Copy CRC 2D946AE9
     Track not present in AccurateRip database
     Copy OK
Track 19
     Filename E:\Nafta Releases\Scooter - 100% Scooter 25 Years Wild & Wicked (Limited Edition 5 CD 2017)[FLAC] - Naftamusic\CD 3\19 - Let Me Be Your Valentine.wav
     Peak level 93.3 %
     Extraction speed 4.4 X
     Track quality 99.9 %
     Test CRC 753D02B1
     Copy CRC 753D02B1
     Track not present in AccurateRip database
     Copy OK
Track 20
     Filename E:\Nafta Releases\Scooter - 100% Scooter 25 Years Wild & Wicked (Limited Edition 5 CD 2017)[FLAC] - Naftamusic\CD 3\20 - Behind The Cow.wav
     Pre-gap length  0:00:00.64
     Peak level 94.4 %
     Extraction speed 5.6 X
     Track quality 100.0 %
     Test CRC 80CB4FC9
     Copy CRC 80CB4FC9
     Track not present in AccurateRip database
     Copy OK
Track 21
     Filename E:\Nafta Releases\Scooter - 100% Scooter 25 Years Wild & Wicked (Limited Edition 5 CD 2017)[FLAC] - Naftamusic\CD 3\21 - Vallée De Larmes.wav
     Pre-gap length  0:00:01.51
     Peak level 82.5 %
     Extraction speed 5.9 X
     Track quality 100.0 %
     Test CRC 125552E9
     Copy CRC 125552E9
     Track not present in AccurateRip database
     Copy OK
None of the tracks are present in the AccurateRip database
No errors occurred
End of status report
Код:
Exact Audio Copy V1.3 from 2. September 2016
EAC extraction logfile from 16. December 2017, 17:42
Olga Scheps / 100% Scooter Piano Only
Used drive  : PLEXTOR DVDR   PX-891SAF   Adapter: 1  ID: 0
Read mode               : Secure
Utilize accurate stream : Yes
Defeat audio cache      : Yes
Make use of C2 pointers : No
Read offset correction                      : 6
Overread into Lead-In and Lead-Out          : No
Fill up missing offset samples with silence : Yes
Delete leading and trailing silent blocks   : No
Null samples used in CRC calculations       : Yes
Used interface                              : Native Win32 interface for Win NT & 2000
Gap handling                                : Appended to previous track
Used output format              : User Defined Encoder
Selected bitrate                : 1024 kBit/s
Quality                         : High
Add ID3 tag                     : No
Command line compressor         : C:\Program Files (x86)\Exact Audio Copy\Flac\flac.exe
Additional command line options : -0 -V -T "ARTIST=%artist%" -T "TITLE=%title%" -T "ALBUM=%albumtitle%" -T "DATE=%year%" -T "TRACKNUMBER=%tracknr%" -T "TOTALTRACKS=%numtracks%" -T "GENRE=%genre%" -T "COMMENT=Naftamusic Release!" %source%
TOC of the extracted CD
     Track |   Start  |  Length  | Start sector | End sector
    ---------------------------------------------------------
        1  |  0:00.00 |  3:03.01 |         0    |    13725
        2  |  3:03.01 |  3:54.27 |     13726    |    31302
        3  |  6:57.28 |  2:16.72 |     31303    |    41574
        4  |  9:14.25 |  3:35.70 |     41575    |    57769
        5  | 12:50.20 |  4:47.36 |     57770    |    79330
        6  | 17:37.56 |  5:02.50 |     79331    |   102030
        7  | 22:40.31 |  4:32.14 |    102031    |   122444
        8  | 27:12.45 |  3:43.54 |    122445    |   139223
        9  | 30:56.24 |  3:38.57 |    139224    |   155630
       10  | 34:35.06 |  2:05.07 |    155631    |   165012
       11  | 36:40.13 |  1:57.69 |    165013    |   173856
Track  1
     Filename E:\Nafta Releases\Scooter - 100% Scooter 25 Years Wild & Wicked (Limited Edition 5 CD 2017)[FLAC] - Naftamusic\CD 4\01 - 4 AM.wav
     Pre-gap length  0:00:02.00
     Peak level 97.2 %
     Extraction speed 2.5 X
     Track quality 100.0 %
     Test CRC BA096D71
     Copy CRC BA096D71
     Track not present in AccurateRip database
     Copy OK
Track  2
     Filename E:\Nafta Releases\Scooter - 100% Scooter 25 Years Wild & Wicked (Limited Edition 5 CD 2017)[FLAC] - Naftamusic\CD 4\02 - One (Always Hardcore).wav
     Peak level 97.2 %
     Extraction speed 2.3 X
     Track quality 99.9 %
     Test CRC AF2A2662
     Copy CRC AF2A2662
     Track not present in AccurateRip database
     Copy OK
Track  3
     Filename E:\Nafta Releases\Scooter - 100% Scooter 25 Years Wild & Wicked (Limited Edition 5 CD 2017)[FLAC] - Naftamusic\CD 4\03 - Friends.wav
     Peak level 97.2 %
     Extraction speed 2.8 X
     Track quality 100.0 %
     Test CRC AF0E32E2
     Copy CRC AF0E32E2
     Track not present in AccurateRip database
     Copy OK
Track  4
     Filename E:\Nafta Releases\Scooter - 100% Scooter 25 Years Wild & Wicked (Limited Edition 5 CD 2017)[FLAC] - Naftamusic\CD 4\04 - How Much Is The Fish.wav
     Peak level 97.2 %
     Extraction speed 3.3 X
     Track quality 100.0 %
     Test CRC B16B3199
     Copy CRC B16B3199
     Track not present in AccurateRip database
     Copy OK
Track  5
     Filename E:\Nafta Releases\Scooter - 100% Scooter 25 Years Wild & Wicked (Limited Edition 5 CD 2017)[FLAC] - Naftamusic\CD 4\05 - I'm Lonely.wav
     Peak level 97.2 %
     Extraction speed 2.9 X
     Track quality 99.9 %
     Test CRC 0164066D
     Copy CRC 0164066D
     Track not present in AccurateRip database
     Copy OK
Track  6
     Filename E:\Nafta Releases\Scooter - 100% Scooter 25 Years Wild & Wicked (Limited Edition 5 CD 2017)[FLAC] - Naftamusic\CD 4\06 - The Logical Song.wav
     Peak level 97.2 %
     Extraction speed 3.9 X
     Track quality 100.0 %
     Test CRC F05345B5
     Copy CRC F05345B5
     Track not present in AccurateRip database
     Copy OK
Track  7
     Filename E:\Nafta Releases\Scooter - 100% Scooter 25 Years Wild & Wicked (Limited Edition 5 CD 2017)[FLAC] - Naftamusic\CD 4\07 - Nessaja.wav
     Peak level 97.2 %
     Extraction speed 4.2 X
     Track quality 100.0 %
     Test CRC AC7B93B8
     Copy CRC AC7B93B8
     Track not present in AccurateRip database
     Copy OK
Track  8
     Filename E:\Nafta Releases\Scooter - 100% Scooter 25 Years Wild & Wicked (Limited Edition 5 CD 2017)[FLAC] - Naftamusic\CD 4\08 - Weekend!.wav
     Peak level 97.2 %
     Extraction speed 4.3 X
     Track quality 100.0 %
     Test CRC 3CACAB02
     Copy CRC 3CACAB02
     Track not present in AccurateRip database
     Copy OK
Track  9
     Filename E:\Nafta Releases\Scooter - 100% Scooter 25 Years Wild & Wicked (Limited Edition 5 CD 2017)[FLAC] - Naftamusic\CD 4\09 - Mary Got No Lamb.wav
     Peak level 97.2 %
     Extraction speed 3.4 X
     Track quality 99.9 %
     Test CRC 153EDA26
     Copy CRC 153EDA26
     Track not present in AccurateRip database
     Copy OK
Track 10
     Filename E:\Nafta Releases\Scooter - 100% Scooter 25 Years Wild & Wicked (Limited Edition 5 CD 2017)[FLAC] - Naftamusic\CD 4\10 - Maria (I Like It Loud).wav
     Peak level 97.2 %
     Extraction speed 4.0 X
     Track quality 100.0 %
     Test CRC CCB49D29
     Copy CRC CCB49D29
     Track not present in AccurateRip database
     Copy OK
Track 11
     Filename E:\Nafta Releases\Scooter - 100% Scooter 25 Years Wild & Wicked (Limited Edition 5 CD 2017)[FLAC] - Naftamusic\CD 4\11 - Bigroom Blitz.wav
     Peak level 97.3 %
     Extraction speed 4.0 X
     Track quality 100.0 %
     Test CRC 57BF624B
     Copy CRC 57BF624B
     Track not present in AccurateRip database
     Copy OK
None of the tracks are present in the AccurateRip database
No errors occurred
End of status report
Код:
Exact Audio Copy V1.3 from 2. September 2016
EAC extraction logfile from 16. December 2017, 18:33
Scooter / 100% Scooter - Who The Fuck Is HP Baxxter DJ-Mix
Used drive  : PLEXTOR DVDR   PX-891SAF   Adapter: 1  ID: 0
Read mode               : Secure
Utilize accurate stream : Yes
Defeat audio cache      : Yes
Make use of C2 pointers : No
Read offset correction                      : 6
Overread into Lead-In and Lead-Out          : No
Fill up missing offset samples with silence : Yes
Delete leading and trailing silent blocks   : No
Null samples used in CRC calculations       : Yes
Used interface                              : Native Win32 interface for Win NT & 2000
Gap handling                                : Appended to previous track
Used output format              : User Defined Encoder
Selected bitrate                : 1024 kBit/s
Quality                         : High
Add ID3 tag                     : No
Command line compressor         : C:\Program Files (x86)\Exact Audio Copy\Flac\flac.exe
Additional command line options : -0 -V -T "ARTIST=%artist%" -T "TITLE=%title%" -T "ALBUM=%albumtitle%" -T "DATE=%year%" -T "TRACKNUMBER=%tracknr%" -T "TOTALTRACKS=%numtracks%" -T "GENRE=%genre%" -T "COMMENT=Naftamusic Release!" %source%
TOC of the extracted CD
     Track |   Start  |  Length  | Start sector | End sector
    ---------------------------------------------------------
        1  |  0:00.00 |  1:27.24 |         0    |     6548
        2  |  1:27.24 |  1:13.29 |      6549    |    12052
        3  |  2:40.53 |  1:20.34 |     12053    |    18086
        4  |  4:01.12 |  1:27.17 |     18087    |    24628
        5  |  5:28.29 |  1:39.53 |     24629    |    32106
        6  |  7:08.07 |  1:14.03 |     32107    |    37659
        7  |  8:22.10 |  1:33.32 |     37660    |    44666
        8  |  9:55.42 |  1:38.03 |     44667    |    52019
        9  | 11:33.45 |  1:23.36 |     52020    |    58280
       10  | 12:57.06 |  1:33.69 |     58281    |    65324
       11  | 14:31.00 |  1:12.58 |     65325    |    70782
       12  | 15:43.58 |  1:49.40 |     70783    |    78997
       13  | 17:33.23 |  1:42.33 |     78998    |    86680
       14  | 19:15.56 |  2:02.50 |     86681    |    95880
       15  | 21:18.31 |  2:58.17 |     95881    |   109247
       16  | 24:16.48 |  1:22.72 |    109248    |   115469
       17  | 25:39.45 |  2:29.74 |    115470    |   126718
       18  | 28:09.44 |  1:35.69 |    126719    |   133912
       19  | 29:45.38 |  1:47.37 |    133913    |   141974
       20  | 31:33.00 |  1:07.07 |    141975    |   147006
       21  | 32:40.07 |  1:37.00 |    147007    |   154281
       22  | 34:17.07 |  1:06.63 |    154282    |   159294
       23  | 35:23.70 |  1:36.45 |    159295    |   166539
       24  | 37:00.40 |  2:08.39 |    166540    |   176178
       25  | 39:09.04 |  2:32.43 |    176179    |   187621
       26  | 41:41.47 |  1:52.60 |    187622    |   196081
       27  | 43:34.32 |  1:49.43 |    196082    |   204299
       28  | 45:24.00 |  2:37.58 |    204300    |   216132
       29  | 48:01.58 |  1:24.14 |    216133    |   222446
       30  | 49:25.72 |  2:00.00 |    222447    |   231446
       31  | 51:25.72 |  2:35.47 |    231447    |   243118
       32  | 54:01.44 |  2:42.66 |    243119    |   255334
       33  | 56:44.35 |  3:48.08 |    255335    |   272442
       34  | 60:32.43 |  2:56.71 |    272443    |   285713
Track  1
     Filename E:\Nafta Releases\Scooter - 100% Scooter 25 Years Wild & Wicked (Limited Edition 5 CD 2017)[FLAC] - Naftamusic\CD 5\01 - Maria (I Like It Loud)(R.I.O. Remix).wav
     Pre-gap length  0:00:02.00
     Peak level 96.5 %
     Extraction speed 1.3 X
     Track quality 99.8 %
     Test CRC D3616DB7
     Copy CRC D3616DB7
     Track not present in AccurateRip database
     Copy OK
Track  2
     Filename E:\Nafta Releases\Scooter - 100% Scooter 25 Years Wild & Wicked (Limited Edition 5 CD 2017)[FLAC] - Naftamusic\CD 5\02 - Bigroom Blitz (Scooter Remix).wav
     Peak level 96.7 %
     Extraction speed 1.2 X
     Track quality 99.8 %
     Test CRC 711A402B
     Copy CRC 711A402B
     Track not present in AccurateRip database
     Copy OK
Track  3
     Filename E:\Nafta Releases\Scooter - 100% Scooter 25 Years Wild & Wicked (Limited Edition 5 CD 2017)[FLAC] - Naftamusic\CD 5\03 - Today (Scooter Remix).wav
     Peak level 56.5 %
     Extraction speed 2.1 X
     Track quality 100.0 %
     Test CRC BCE0F4E5
     Copy CRC BCE0F4E5
     Track not present in AccurateRip database
     Copy OK
Track  4
     Filename E:\Nafta Releases\Scooter - 100% Scooter 25 Years Wild & Wicked (Limited Edition 5 CD 2017)[FLAC] - Naftamusic\CD 5\04 - Opium.wav
     Peak level 91.8 %
     Extraction speed 2.3 X
     Track quality 100.0 %
     Test CRC E9BBE979
     Copy CRC E9BBE979
     Track not present in AccurateRip database
     Copy OK
Track  5
     Filename E:\Nafta Releases\Scooter - 100% Scooter 25 Years Wild & Wicked (Limited Edition 5 CD 2017)[FLAC] - Naftamusic\CD 5\05 - The Only Club.wav
     Peak level 96.5 %
     Extraction speed 2.5 X
     Track quality 100.0 %
     Test CRC C8C75BC2
     Copy CRC C8C75BC2
     Track not present in AccurateRip database
     Copy OK
Track  6
     Filename E:\Nafta Releases\Scooter - 100% Scooter 25 Years Wild & Wicked (Limited Edition 5 CD 2017)[FLAC] - Naftamusic\CD 5\06 - How Much Is The Fish (Tony Junior Remix).wav
     Peak level 56.7 %
     Extraction speed 1.4 X
     Track quality 99.8 %
     Test CRC 53BB3145
     Copy CRC 53BB3145
     Track not present in AccurateRip database
     Copy OK
Track  7
     Filename E:\Nafta Releases\Scooter - 100% Scooter 25 Years Wild & Wicked (Limited Edition 5 CD 2017)[FLAC] - Naftamusic\CD 5\07 - Mary Got No Lamb (Arena Mix).wav
     Peak level 56.2 %
     Extraction speed 2.6 X
     Track quality 100.0 %
     Test CRC E8F1EBA8
     Copy CRC E8F1EBA8
     Track not present in AccurateRip database
     Copy OK
Track  8
     Filename E:\Nafta Releases\Scooter - 100% Scooter 25 Years Wild & Wicked (Limited Edition 5 CD 2017)[FLAC] - Naftamusic\CD 5\08 - In Rave We Trust (Anthem Club Mix).wav
     Peak level 56.0 %
     Extraction speed 2.7 X
     Track quality 100.0 %
     Test CRC A2A05878
     Copy CRC A2A05878
     Track not present in AccurateRip database
     Copy OK
Track  9
     Filename E:\Nafta Releases\Scooter - 100% Scooter 25 Years Wild & Wicked (Limited Edition 5 CD 2017)[FLAC] - Naftamusic\CD 5\09 - Kashmir.wav
     Pre-gap length  0:00:01.03
     Peak level 56.1 %
     Extraction speed 2.7 X
     Track quality 100.0 %
     Test CRC 5C26AA39
     Copy CRC 5C26AA39
     Track not present in AccurateRip database
     Copy OK
Track 10
     Filename E:\Nafta Releases\Scooter - 100% Scooter 25 Years Wild & Wicked (Limited Edition 5 CD 2017)[FLAC] - Naftamusic\CD 5\10 - Vallée De Larmes.wav
     Peak level 96.2 %
     Extraction speed 1.8 X
     Track quality 99.8 %
     Test CRC A97DB566
     Copy CRC A97DB566
     Track not present in AccurateRip database
     Copy OK
Track 11
     Filename E:\Nafta Releases\Scooter - 100% Scooter 25 Years Wild & Wicked (Limited Edition 5 CD 2017)[FLAC] - Naftamusic\CD 5\11 - Frequent Traveller.wav
     Peak level 56.1 %
     Extraction speed 2.7 X
     Track quality 100.0 %
     Test CRC D75DA8B3
     Copy CRC D75DA8B3
     Track not present in AccurateRip database
     Copy OK
Track 12
     Filename E:\Nafta Releases\Scooter - 100% Scooter 25 Years Wild & Wicked (Limited Edition 5 CD 2017)[FLAC] - Naftamusic\CD 5\12 - Metropolis.wav
     Peak level 56.4 %
     Extraction speed 2.1 X
     Track quality 99.9 %
     Test CRC 345BA776
     Copy CRC 345BA776
     Track not present in AccurateRip database
     Copy OK
Track 13
     Filename E:\Nafta Releases\Scooter - 100% Scooter 25 Years Wild & Wicked (Limited Edition 5 CD 2017)[FLAC] - Naftamusic\CD 5\13 - Devil Drums.wav
     Peak level 96.8 %
     Extraction speed 3.1 X
     Track quality 100.0 %
     Test CRC 4BE59982
     Copy CRC 4BE59982
     Track not present in AccurateRip database
     Copy OK
Track 14
     Filename E:\Nafta Releases\Scooter - 100% Scooter 25 Years Wild & Wicked (Limited Edition 5 CD 2017)[FLAC] - Naftamusic\CD 5\14 - Trance-Atlantic.wav
     Peak level 56.2 %
     Extraction speed 3.3 X
     Track quality 100.0 %
     Test CRC C499D877
     Copy CRC C499D877
     Track not present in AccurateRip database
     Copy OK
Track 15
     Filename E:\Nafta Releases\Scooter - 100% Scooter 25 Years Wild & Wicked (Limited Edition 5 CD 2017)[FLAC] - Naftamusic\CD 5\15 - Way Up North.wav
     Peak level 56.3 %
     Extraction speed 3.7 X
     Track quality 100.0 %
     Test CRC 4E995995
     Copy CRC 4E995995
     Track not present in AccurateRip database
     Copy OK
Track 16
     Filename E:\Nafta Releases\Scooter - 100% Scooter 25 Years Wild & Wicked (Limited Edition 5 CD 2017)[FLAC] - Naftamusic\CD 5\16 - Turn Up That Blaster.wav
     Peak level 85.0 %
     Extraction speed 2.0 X
     Track quality 99.8 %
     Test CRC F8DB6D28
     Copy CRC F8DB6D28
     Track not present in AccurateRip database
     Copy OK
Track 17
     Filename E:\Nafta Releases\Scooter - 100% Scooter 25 Years Wild & Wicked (Limited Edition 5 CD 2017)[FLAC] - Naftamusic\CD 5\17 - Sunrise (Here I Am).wav
     Peak level 56.2 %
     Extraction speed 3.8 X
     Track quality 100.0 %
     Test CRC 37EE7186
     Copy CRC 37EE7186
     Track not present in AccurateRip database
     Copy OK
Track 18
     Filename E:\Nafta Releases\Scooter - 100% Scooter 25 Years Wild & Wicked (Limited Edition 5 CD 2017)[FLAC] - Naftamusic\CD 5\18 - Main Floor.wav
     Peak level 76.7 %
     Extraction speed 2.2 X
     Track quality 99.8 %
     Test CRC 13C4A5B3
     Copy CRC 13C4A5B3
     Track not present in AccurateRip database
     Copy OK
Track 19
     Filename E:\Nafta Releases\Scooter - 100% Scooter 25 Years Wild & Wicked (Limited Edition 5 CD 2017)[FLAC] - Naftamusic\CD 5\19 - Acid Bomb.wav
     Pre-gap length  0:00:00.70
     Peak level 56.6 %
     Extraction speed 3.6 X
     Track quality 100.0 %
     Test CRC A8AE2C88
     Copy CRC A8AE2C88
     Track not present in AccurateRip database
     Copy OK
Track 20
     Filename E:\Nafta Releases\Scooter - 100% Scooter 25 Years Wild & Wicked (Limited Edition 5 CD 2017)[FLAC] - Naftamusic\CD 5\20 - Level One.wav
     Peak level 56.2 %
     Extraction speed 3.2 X
     Track quality 100.0 %
     Test CRC F3C288F4
     Copy CRC F3C288F4
     Track not present in AccurateRip database
     Copy OK
Track 21
     Filename E:\Nafta Releases\Scooter - 100% Scooter 25 Years Wild & Wicked (Limited Edition 5 CD 2017)[FLAC] - Naftamusic\CD 5\21 - Giant's Causeway.wav
     Peak level 96.5 %
     Extraction speed 3.7 X
     Track quality 100.0 %
     Test CRC F4B2F53F
     Copy CRC F4B2F53F
     Track not present in AccurateRip database
     Copy OK
Track 22
     Filename E:\Nafta Releases\Scooter - 100% Scooter 25 Years Wild & Wicked (Limited Edition 5 CD 2017)[FLAC] - Naftamusic\CD 5\22 - A Little Bit Too Fast.wav
     Peak level 56.1 %
     Extraction speed 3.3 X
     Track quality 100.0 %
     Test CRC 3382FCBB
     Copy CRC 3382FCBB
     Track not present in AccurateRip database
     Copy OK
Track 23
     Filename E:\Nafta Releases\Scooter - 100% Scooter 25 Years Wild & Wicked (Limited Edition 5 CD 2017)[FLAC] - Naftamusic\CD 5\23 - Soul Train.wav
     Peak level 56.0 %
     Extraction speed 2.4 X
     Track quality 99.8 %
     Test CRC DBB909F7
     Copy CRC DBB909F7
     Track not present in AccurateRip database
     Copy OK
Track 24
     Filename E:\Nafta Releases\Scooter - 100% Scooter 25 Years Wild & Wicked (Limited Edition 5 CD 2017)[FLAC] - Naftamusic\CD 5\24 - The Pusher 2.wav
     Peak level 73.7 %
     Extraction speed 4.1 X
     Track quality 100.0 %
     Test CRC E297428A
     Copy CRC E297428A
     Track not present in AccurateRip database
     Copy OK
Track 25
     Filename E:\Nafta Releases\Scooter - 100% Scooter 25 Years Wild & Wicked (Limited Edition 5 CD 2017)[FLAC] - Naftamusic\CD 5\25 - Lighten Up The Sky.wav
     Peak level 61.0 %
     Extraction speed 4.4 X
     Track quality 100.0 %
     Test CRC 1AA772F6
     Copy CRC 1AA772F6
     Track not present in AccurateRip database
     Copy OK
Track 26
     Filename E:\Nafta Releases\Scooter - 100% Scooter 25 Years Wild & Wicked (Limited Edition 5 CD 2017)[FLAC] - Naftamusic\CD 5\26 - Rhapsody In E.wav
     Peak level 96.3 %
     Extraction speed 4.2 X
     Track quality 100.0 %
     Test CRC E536614B
     Copy CRC E536614B
     Track not present in AccurateRip database
     Copy OK
Track 27
     Filename E:\Nafta Releases\Scooter - 100% Scooter 25 Years Wild & Wicked (Limited Edition 5 CD 2017)[FLAC] - Naftamusic\CD 5\27 - Coldwater Canyon.wav
     Peak level 56.2 %
     Extraction speed 2.8 X
     Track quality 99.9 %
     Test CRC 231748D0
     Copy CRC 231748D0
     Track not present in AccurateRip database
     Copy OK
Track 28
     Filename E:\Nafta Releases\Scooter - 100% Scooter 25 Years Wild & Wicked (Limited Edition 5 CD 2017)[FLAC] - Naftamusic\CD 5\28 - Back In Time.wav
     Peak level 56.3 %
     Extraction speed 4.6 X
     Track quality 100.0 %
     Test CRC 80911434
     Copy CRC 80911434
     Track not present in AccurateRip database
     Copy OK
Track 29
     Filename E:\Nafta Releases\Scooter - 100% Scooter 25 Years Wild & Wicked (Limited Edition 5 CD 2017)[FLAC] - Naftamusic\CD 5\29 - The First Time.wav
     Peak level 56.1 %
     Extraction speed 4.1 X
     Track quality 100.0 %
     Test CRC 6F2D966E
     Copy CRC 6F2D966E
     Track not present in AccurateRip database
     Copy OK
Track 30
     Filename E:\Nafta Releases\Scooter - 100% Scooter 25 Years Wild & Wicked (Limited Edition 5 CD 2017)[FLAC] - Naftamusic\CD 5\30 - Stuttgart.wav
     Peak level 56.1 %
     Extraction speed 4.5 X
     Track quality 100.0 %
     Test CRC 53612F6A
     Copy CRC 53612F6A
     Track not present in AccurateRip database
     Copy OK
Track 31
     Filename E:\Nafta Releases\Scooter - 100% Scooter 25 Years Wild & Wicked (Limited Edition 5 CD 2017)[FLAC] - Naftamusic\CD 5\31 - Bramfeld.wav
     Peak level 93.0 %
     Extraction speed 4.9 X
     Track quality 100.0 %
     Test CRC 745272D4
     Copy CRC 745272D4
     Track not present in AccurateRip database
     Copy OK
Track 32
     Filename E:\Nafta Releases\Scooter - 100% Scooter 25 Years Wild & Wicked (Limited Edition 5 CD 2017)[FLAC] - Naftamusic\CD 5\32 - Unity Without Words (Party II).wav
     Peak level 56.1 %
     Extraction speed 5.0 X
     Track quality 100.0 %
     Test CRC 079E8571
     Copy CRC 079E8571
     Track not present in AccurateRip database
     Copy OK
Track 33
     Filename E:\Nafta Releases\Scooter - 100% Scooter 25 Years Wild & Wicked (Limited Edition 5 CD 2017)[FLAC] - Naftamusic\CD 5\33 - Awekening.wav
     Peak level 56.4 %
     Extraction speed 5.4 X
     Track quality 100.0 %
     Test CRC B5CE3F3A
     Copy CRC B5CE3F3A
     Track not present in AccurateRip database
     Copy OK
Track 34
     Filename E:\Nafta Releases\Scooter - 100% Scooter 25 Years Wild & Wicked (Limited Edition 5 CD 2017)[FLAC] - Naftamusic\CD 5\34 - Crank It Up.wav
     Peak level 76.1 %
     Extraction speed 3.8 X
     Track quality 99.9 %
     Test CRC 84D9A70A
     Copy CRC 84D9A70A
     Track not present in AccurateRip database
     Copy OK
None of the tracks are present in the AccurateRip database
No errors occurred
End of status report
Код:
REM GENRE Techno
REM DATE 2017
REM DISCID 4911D715
REM COMMENT "ExactAudioCopy v1.3"
PERFORMER "Scooter"
TITLE "100% Scooter"
REM COMPOSER ""
FILE "01 - The Logical Song.wav" WAVE
  TRACK 01 AUDIO
    TITLE "The Logical Song"
    PERFORMER "Scooter"
    REM COMPOSER ""
    INDEX 01 00:00:00
FILE "02 - How Much Is The Fish.wav" WAVE
  TRACK 02 AUDIO
    TITLE "How Much Is The Fish?"
    PERFORMER "Scooter"
    REM COMPOSER ""
    INDEX 01 00:00:00
  TRACK 03 AUDIO
    TITLE "One (Always Hardcore)"
    PERFORMER "Scooter"
    REM COMPOSER ""
    INDEX 00 03:46:04
FILE "03 - One (Always Hardcore).wav" WAVE
    INDEX 01 00:00:00
FILE "04 - Move Your Ass.wav" WAVE
  TRACK 04 AUDIO
    TITLE "Move Your Ass"
    PERFORMER "Scooter"
    REM COMPOSER ""
    INDEX 01 00:00:00
FILE "05 - Friends.wav" WAVE
  TRACK 05 AUDIO
    TITLE "Friends"
    PERFORMER "Scooter"
    REM COMPOSER ""
    INDEX 01 00:00:00
FILE "06 - Hyper Hyper.wav" WAVE
  TRACK 06 AUDIO
    TITLE "Hyper Hyper"
    PERFORMER "Scooter"
    REM COMPOSER ""
    INDEX 01 00:00:00
  TRACK 07 AUDIO
    TITLE "Call Me Manana"
    PERFORMER "Scooter"
    REM COMPOSER ""
    INDEX 00 03:32:07
FILE "07 - Call Me Manana.wav" WAVE
    INDEX 01 00:00:00
  TRACK 08 AUDIO
    TITLE "Fuck The Millenium"
    PERFORMER "Scooter"
    REM COMPOSER ""
    INDEX 00 03:39:73
FILE "08 - Fuck The Millenium.wav" WAVE
    INDEX 01 00:00:00
  TRACK 09 AUDIO
    TITLE "Back In The U.K."
    PERFORMER "Scooter"
    REM COMPOSER ""
    INDEX 00 04:11:45
FILE "09 - Back In The U.K..wav" WAVE
    INDEX 01 00:00:00
  TRACK 10 AUDIO
    TITLE "No Fate"
    PERFORMER "Scooter"
    REM COMPOSER ""
    INDEX 00 03:23:58
FILE "10 - No Fate.wav" WAVE
    INDEX 01 00:00:00
  TRACK 11 AUDIO
    TITLE "Jumping All Over The World"
    PERFORMER "Scooter"
    REM COMPOSER ""
    INDEX 00 03:41:39
FILE "11 - Jumping All Over The World.wav" WAVE
    INDEX 01 00:00:00
  TRACK 12 AUDIO
    TITLE "The Age Of Love"
    PERFORMER "Scooter"
    REM COMPOSER ""
    INDEX 00 03:45:47
FILE "12 - The Age Of Love.wav" WAVE
    INDEX 01 00:00:00
  TRACK 13 AUDIO
    TITLE "Aiii Shot The DJ"
    PERFORMER "Scooter"
    REM COMPOSER ""
    INDEX 00 03:50:06
FILE "13 - Aiii Shot The DJ.wav" WAVE
    INDEX 01 00:00:00
  TRACK 14 AUDIO
    TITLE "J'adore Hardcore"
    PERFORMER "Scooter"
    REM COMPOSER ""
    INDEX 00 03:30:45
FILE "14 - J'adore Hardcore.wav" WAVE
    INDEX 01 00:00:00
  TRACK 15 AUDIO
    TITLE "4 AM"
    PERFORMER "Scooter"
    REM COMPOSER ""
    INDEX 00 03:48:10
FILE "15 - 4 AM.wav" WAVE
    INDEX 01 00:00:00
  TRACK 16 AUDIO
    TITLE "I'm Lonely"
    PERFORMER "Scooter"
    REM COMPOSER ""
    INDEX 00 03:17:48
FILE "16 - I'm Lonely.wav" WAVE
    INDEX 01 00:00:00
  TRACK 17 AUDIO
    TITLE "Army Of Hardcore"
    PERFORMER "Scooter"
    REM COMPOSER ""
    INDEX 00 03:31:29
FILE "17 - Army Of Hardcore.wav" WAVE
    INDEX 01 00:00:00
  TRACK 18 AUDIO
    TITLE "We Are The Greatest"
    PERFORMER "Scooter"
    REM COMPOSER ""
    INDEX 00 02:57:32
FILE "18 - We Are The Greatest.wav" WAVE
    INDEX 01 00:00:00
  TRACK 19 AUDIO
    TITLE "Can't Stop The Hardcore"
    PERFORMER "Scooter"
    REM COMPOSER ""
    INDEX 00 03:27:36
FILE "19 - Can't Stop The Hardcore.wav" WAVE
    INDEX 01 00:00:00
  TRACK 20 AUDIO
    TITLE "I'm Your Pusher"
    PERFORMER "Scooter"
    REM COMPOSER ""
    INDEX 00 02:45:17
FILE "20 - I'm Your Pusher.wav" WAVE
    INDEX 01 00:00:00
  TRACK 21 AUDIO
    TITLE "In Rave We Trust - Amateur Hour (Anthem Mix)"
    PERFORMER "Scooter"
    REM COMPOSER ""
    INDEX 00 03:46:12
FILE "21 - In Rave We Trust - Amateur Hour (Anthem Mix).wav" WAVE
    INDEX 01 00:00:00
Код:
REM GENRE Techno
REM DATE 2017
REM DISCID 47119D15
REM COMMENT "ExactAudioCopy v1.3"
PERFORMER "Scooter"
TITLE "100% Scooter"
REM COMPOSER ""
FILE "01 - Nessaja.wav" WAVE
  TRACK 01 AUDIO
    TITLE "Nessaja"
    PERFORMER "Scooter"
    REM COMPOSER ""
    INDEX 01 00:00:00
FILE "02 - Maria (I Like It Loud).wav" WAVE
  TRACK 02 AUDIO
    TITLE "Maria (I Like It Loud)"
    PERFORMER "Scooter"
    REM COMPOSER ""
    INDEX 01 00:00:00
  TRACK 03 AUDIO
    TITLE "The Question Is What Is The Question"
    PERFORMER "Scooter"
    REM COMPOSER ""
    INDEX 00 03:40:16
FILE "03 - The Question Is What Is The Question.wav" WAVE
    INDEX 01 00:00:00
FILE "04 - Weekend!.wav" WAVE
  TRACK 04 AUDIO
    TITLE "Weekend!"
    PERFORMER "Scooter"
    REM COMPOSER ""
    INDEX 01 00:00:00
  TRACK 05 AUDIO
    TITLE "Mary Got No Lamb"
    PERFORMER "Scooter"
    REM COMPOSER ""
    INDEX 00 03:35:38
FILE "05 - Mary Got No Lamb.wav" WAVE
    INDEX 01 00:00:00
  TRACK 06 AUDIO
    TITLE "Bigroom Blitz"
    PERFORMER "Scooter"
    REM COMPOSER ""
    INDEX 00 03:26:65
FILE "06 - Bigroom Blitz.wav" WAVE
    INDEX 01 00:00:00
  TRACK 07 AUDIO
    TITLE "Faster Harder Scooter"
    PERFORMER "Scooter"
    REM COMPOSER ""
    INDEX 00 03:07:01
FILE "07 - Faster Harder Scooter.wav" WAVE
    INDEX 01 00:00:00
  TRACK 08 AUDIO
    TITLE "I'm Raving"
    PERFORMER "Scooter"
    REM COMPOSER ""
    INDEX 00 03:46:36
FILE "08 - I'm Raving.wav" WAVE
    INDEX 01 00:00:00
FILE "09 - Posse (I Need You On The Floor).wav" WAVE
  TRACK 09 AUDIO
    TITLE "Posse (I Need You On The Floor)"
    PERFORMER "Scooter"
    REM COMPOSER ""
    INDEX 01 00:00:00
  TRACK 10 AUDIO
    TITLE "Rebel Yell"
    PERFORMER "Scooter"
    REM COMPOSER ""
    INDEX 00 03:50:40
FILE "10 - Rebel Yell.wav" WAVE
    INDEX 01 00:00:00
  TRACK 11 AUDIO
    TITLE "Jigga Jigga!"
    PERFORMER "Scooter"
    REM COMPOSER ""
    INDEX 00 03:40:31
FILE "11 - Jigga Jigga!.wav" WAVE
    INDEX 01 00:00:00
  TRACK 12 AUDIO
    TITLE "Apache Rocks The Bottom!"
    PERFORMER "Scooter"
    REM COMPOSER ""
    INDEX 00 03:52:71
FILE "12 - Apache Rocks The Bottom!.wav" WAVE
    INDEX 01 00:00:00
  TRACK 13 AUDIO
    TITLE "The Sound Above My Hair"
    PERFORMER "Scooter"
    REM COMPOSER ""
    INDEX 00 03:44:65
FILE "13 - The Sound Above My Hair.wav" WAVE
    INDEX 01 00:00:00
  TRACK 14 AUDIO
    TITLE "999 (Call The Police)"
    PERFORMER "Scooter"
    REM COMPOSER ""
    INDEX 00 03:35:07
FILE "14 - 999 (Call The Police).wav" WAVE
    INDEX 01 00:00:00
  TRACK 15 AUDIO
    TITLE "Ti Sento"
    PERFORMER "Scooter"
    REM COMPOSER ""
    INDEX 00 03:35:57
FILE "15 - Ti Sento.wav" WAVE
    INDEX 01 00:00:00
  TRACK 16 AUDIO
    TITLE "C'est Bleu (feat. Vicky Leandros)"
    PERFORMER "Scooter"
    REM COMPOSER ""
    INDEX 00 03:54:64
FILE "16 - C'est Bleu (feat. Vicky Leandros).wav" WAVE
    INDEX 01 00:00:00
  TRACK 17 AUDIO
    TITLE "Hello! (Good To Be Back)"
    PERFORMER "Scooter"
    REM COMPOSER ""
    INDEX 00 03:11:13
FILE "17 - Hello! (Good To Be Back).wav" WAVE
    INDEX 01 00:00:00
  TRACK 18 AUDIO
    TITLE "Stuck On Replay"
    PERFORMER "Scooter"
    REM COMPOSER ""
    INDEX 00 03:29:02
FILE "18 - Stuck On Replay.wav" WAVE
    INDEX 01 00:00:00
  TRACK 19 AUDIO
    TITLE "Today (Scooter And Vassy)"
    PERFORMER "Scooter"
    REM COMPOSER ""
    INDEX 00 03:09:05
FILE "19 - Today (Scooter And Vassy).wav" WAVE
    INDEX 01 00:00:00
  TRACK 20 AUDIO
    TITLE "It's A Biz (Ain't Nobody)"
    PERFORMER "Scooter"
    REM COMPOSER ""
    INDEX 00 03:27:28
FILE "20 - It's A Biz (Ain't Nobody).wav" WAVE
    INDEX 01 00:00:00
  TRACK 21 AUDIO
    TITLE "I Was Made For Lovin' You"
    PERFORMER "Scooter"
    REM COMPOSER ""
    INDEX 00 03:22:03
FILE "21 - I Was Made For Lovin' You.wav" WAVE
    INDEX 01 00:00:00
Код:
REM GENRE Techno
REM DATE 2017
REM DISCID 10114F15
REM COMMENT "ExactAudioCopy v1.3"
PERFORMER "Scooter"
TITLE "100% Scooter"
REM COMPOSER ""
FILE "01 - Endless Summer.wav" WAVE
  TRACK 01 AUDIO
    TITLE "Endless Summer"
    PERFORMER "Scooter"
    REM COMPOSER ""
    INDEX 01 00:00:00
  TRACK 02 AUDIO
    TITLE "Fire"
    PERFORMER "Scooter"
    REM COMPOSER ""
    INDEX 00 03:44:45
FILE "02 - Fire.wav" WAVE
    INDEX 01 00:00:00
  TRACK 03 AUDIO
    TITLE "The Night"
    PERFORMER "Scooter"
    REM COMPOSER ""
    INDEX 00 03:30:27
FILE "03 - The Night.wav" WAVE
    INDEX 01 00:00:00
  TRACK 04 AUDIO
    TITLE "Bora Bora Bora"
    PERFORMER "Scooter"
    REM COMPOSER ""
    INDEX 00 03:22:10
FILE "04 - Bora Bora Bora.wav" WAVE
    INDEX 01 00:00:00
FILE "05 - Oi.wav" WAVE
  TRACK 05 AUDIO
    TITLE "Oi"
    PERFORMER "Scooter"
    REM COMPOSER ""
    INDEX 01 00:00:00
  TRACK 06 AUDIO
    TITLE "Lass Uns Tanzen"
    PERFORMER "Scooter"
    REM COMPOSER ""
    INDEX 00 03:10:14
FILE "06 - Lass Uns Tanzen.wav" WAVE
    INDEX 01 00:00:00
  TRACK 07 AUDIO
    TITLE "My Gabber (feat. Jebroer)"
    PERFORMER "Scooter"
    REM COMPOSER ""
    INDEX 00 03:42:52
FILE "07 - My Gabber (feat. Jebroer).wav" WAVE
    INDEX 01 00:00:00
FILE "08 - Jump That Rock (Whatever You Want feat. Status Quo).wav" WAVE
  TRACK 08 AUDIO
    TITLE "Jump That Rock (Whatever You Want feat. Status Quo)"
    PERFORMER "Scooter"
    REM COMPOSER ""
    INDEX 01 00:00:00
  TRACK 09 AUDIO
    TITLE "Radiate (Spy Version feat. Vassy)"
    PERFORMER "Scooter"
    REM COMPOSER ""
    INDEX 00 03:22:34
FILE "09 - Radiate (Spy Version feat. Vassy).wav" WAVE
    INDEX 01 00:00:00
  TRACK 10 AUDIO
    TITLE "Riot"
    PERFORMER "Scooter"
    REM COMPOSER ""
    INDEX 00 03:02:62
FILE "10 - Riot.wav" WAVE
    INDEX 01 00:00:00
FILE "11 - And No Matches.wav" WAVE
  TRACK 11 AUDIO
    TITLE "And No Matches"
    PERFORMER "Scooter"
    REM COMPOSER ""
    INDEX 01 00:00:00
  TRACK 12 AUDIO
    TITLE "David Doesn't Eat"
    PERFORMER "Scooter"
    REM COMPOSER ""
    INDEX 00 03:31:22
FILE "12 - David Doesn't Eat.wav" WAVE
    INDEX 01 00:00:00
  TRACK 13 AUDIO
    TITLE "Friends Turbo"
    PERFORMER "Scooter"
    REM COMPOSER ""
    INDEX 00 03:36:56
FILE "13 - Friends Turbo.wav" WAVE
    INDEX 01 00:00:00
  TRACK 14 AUDIO
    TITLE "Break It Up"
    PERFORMER "Scooter"
    REM COMPOSER ""
    INDEX 00 03:20:60
FILE "14 - Break It Up.wav" WAVE
    INDEX 01 00:00:00
  TRACK 15 AUDIO
    TITLE "Shake That"
    PERFORMER "Scooter"
    REM COMPOSER ""
    INDEX 00 03:37:43
FILE "15 - Shake That.wav" WAVE
    INDEX 01 00:00:00
  TRACK 16 AUDIO
    TITLE "Suavemente"
    PERFORMER "Scooter"
    REM COMPOSER ""
    INDEX 00 03:16:67
FILE "16 - Suavemente.wav" WAVE
    INDEX 01 00:00:00
  TRACK 17 AUDIO
    TITLE "The Only One"
    PERFORMER "Scooter"
    REM COMPOSER ""
    INDEX 00 03:36:56
FILE "17 - The Only One.wav" WAVE
    INDEX 01 00:00:00
  TRACK 18 AUDIO
    TITLE "She's The Sun"
    PERFORMER "Scooter"
    REM COMPOSER ""
    INDEX 00 03:31:68
FILE "18 - She's The Sun.wav" WAVE
    INDEX 01 00:00:00
FILE "19 - Let Me Be Your Valentine.wav" WAVE
  TRACK 19 AUDIO
    TITLE "Let Me Be Your Valentine"
    PERFORMER "Scooter"
    REM COMPOSER ""
    INDEX 01 00:00:00
  TRACK 20 AUDIO
    TITLE "Behind The Cow"
    PERFORMER "Scooter"
    REM COMPOSER ""
    INDEX 00 03:49:42
FILE "20 - Behind The Cow.wav" WAVE
    INDEX 01 00:00:00
  TRACK 21 AUDIO
    TITLE "Vallée De Larmes"
    PERFORMER "Scooter"
    REM COMPOSER ""
    INDEX 00 03:34:36
FILE "21 - Vallée De Larmes.wav" WAVE
    INDEX 01 00:00:00
Код:
REM GENRE Classical
REM DATE 2017
REM DISCID 93090E0B
REM COMMENT "ExactAudioCopy v1.3"
PERFORMER "Olga Scheps"
TITLE "100% Scooter Piano Only"
REM COMPOSER ""
FILE "01 - 4 AM.wav" WAVE
  TRACK 01 AUDIO
    TITLE "4 AM"
    PERFORMER "Olga Scheps"
    REM COMPOSER ""
    INDEX 01 00:00:00
FILE "02 - One (Always Hardcore).wav" WAVE
  TRACK 02 AUDIO
    TITLE "One (Always Hardcore)"
    PERFORMER "Olga Scheps"
    REM COMPOSER ""
    INDEX 01 00:00:00
FILE "03 - Friends.wav" WAVE
  TRACK 03 AUDIO
    TITLE "Friends"
    PERFORMER "Olga Scheps"
    REM COMPOSER ""
    INDEX 01 00:00:00
FILE "04 - How Much Is The Fish.wav" WAVE
  TRACK 04 AUDIO
    TITLE "How Much Is The Fish"
    PERFORMER "Olga Scheps"
    REM COMPOSER ""
    INDEX 01 00:00:00
FILE "05 - I'm Lonely.wav" WAVE
  TRACK 05 AUDIO
    TITLE "I'm Lonely"
    PERFORMER "Olga Scheps"
    REM COMPOSER ""
    INDEX 01 00:00:00
FILE "06 - The Logical Song.wav" WAVE
  TRACK 06 AUDIO
    TITLE "The Logical Song"
    PERFORMER "Olga Scheps"
    REM COMPOSER ""
    INDEX 01 00:00:00
FILE "07 - Nessaja.wav" WAVE
  TRACK 07 AUDIO
    TITLE "Nessaja"
    PERFORMER "Olga Scheps"
    REM COMPOSER ""
    INDEX 01 00:00:00
FILE "08 - Weekend!.wav" WAVE
  TRACK 08 AUDIO
    TITLE "Weekend!"
    PERFORMER "Olga Scheps"
    REM COMPOSER ""
    INDEX 01 00:00:00
FILE "09 - Mary Got No Lamb.wav" WAVE
  TRACK 09 AUDIO
    TITLE "Mary Got No Lamb"
    PERFORMER "Olga Scheps"
    REM COMPOSER ""
    INDEX 01 00:00:00
FILE "10 - Maria (I Like It Loud).wav" WAVE
  TRACK 10 AUDIO
    TITLE "Maria (I Like It Loud)"
    PERFORMER "Olga Scheps"
    REM COMPOSER ""
    INDEX 01 00:00:00
FILE "11 - Bigroom Blitz.wav" WAVE
  TRACK 11 AUDIO
    TITLE "Bigroom Blitz"
    PERFORMER "Olga Scheps"
    REM COMPOSER ""
    INDEX 01 00:00:00
Код:
REM GENRE Techno
REM DATE 2017
REM DISCID F10EE122
REM COMMENT "ExactAudioCopy v1.3"
PERFORMER "Scooter"
TITLE "100% Scooter - Who The Fuck Is HP Baxxter DJ-Mix"
REM COMPOSER ""
FILE "01 - Maria (I Like It Loud)(R.I.O. Remix).wav" WAVE
  TRACK 01 AUDIO
    TITLE "Maria (I Like It Loud)(R.I.O. Remix)"
    PERFORMER "Scooter"
    REM COMPOSER ""
    INDEX 01 00:00:00
FILE "02 - Bigroom Blitz (Scooter Remix).wav" WAVE
  TRACK 02 AUDIO
    TITLE "Bigroom Blitz (Scooter Remix)"
    PERFORMER "Scooter"
    REM COMPOSER ""
    INDEX 01 00:00:00
FILE "03 - Today (Scooter Remix).wav" WAVE
  TRACK 03 AUDIO
    TITLE "Today (Scooter Remix)"
    PERFORMER "Scooter"
    REM COMPOSER ""
    INDEX 01 00:00:00
FILE "04 - Opium.wav" WAVE
  TRACK 04 AUDIO
    TITLE "Opium"
    PERFORMER "Scooter"
    REM COMPOSER ""
    INDEX 01 00:00:00
FILE "05 - The Only Club.wav" WAVE
  TRACK 05 AUDIO
    TITLE "The Only Club"
    PERFORMER "Scooter"
    REM COMPOSER ""
    INDEX 01 00:00:00
FILE "06 - How Much Is The Fish (Tony Junior Remix).wav" WAVE
  TRACK 06 AUDIO
    TITLE "How Much Is The Fish? (Tony Junior Remix)"
    PERFORMER "Scooter"
    REM COMPOSER ""
    INDEX 01 00:00:00
FILE "07 - Mary Got No Lamb (Arena Mix).wav" WAVE
  TRACK 07 AUDIO
    TITLE "Mary Got No Lamb (Arena Mix)"
    PERFORMER "Scooter"
    REM COMPOSER ""
    INDEX 01 00:00:00
FILE "08 - In Rave We Trust (Anthem Club Mix).wav" WAVE
  TRACK 08 AUDIO
    TITLE "In Rave We Trust (Anthem Club Mix)"
    PERFORMER "Scooter"
    REM COMPOSER ""
    INDEX 01 00:00:00
  TRACK 09 AUDIO
    TITLE "Kashmir"
    PERFORMER "Scooter"
    REM COMPOSER ""
    INDEX 00 01:37:00
FILE "09 - Kashmir.wav" WAVE
    INDEX 01 00:00:00
FILE "10 - Vallйe De Larmes.wav" WAVE
  TRACK 10 AUDIO
    TITLE "Vallйe De Larmes"
    PERFORMER "Scooter"
    REM COMPOSER ""
    INDEX 01 00:00:00
FILE "11 - Frequent Traveller.wav" WAVE
  TRACK 11 AUDIO
    TITLE "Frequent Traveller"
    PERFORMER "Scooter"
    REM COMPOSER ""
    INDEX 01 00:00:00
FILE "12 - Metropolis.wav" WAVE
  TRACK 12 AUDIO
    TITLE "Metropolis"
    PERFORMER "Scooter"
    REM COMPOSER ""
    INDEX 01 00:00:00
FILE "13 - Devil Drums.wav" WAVE
  TRACK 13 AUDIO
    TITLE "Devil Drums"
    PERFORMER "Scooter"
    REM COMPOSER ""
    INDEX 01 00:00:00
FILE "14 - Trance-Atlantic.wav" WAVE
  TRACK 14 AUDIO
    TITLE "Trance-Atlantic"
    PERFORMER "Scooter"
    REM COMPOSER ""
    INDEX 01 00:00:00
FILE "15 - Way Up North.wav" WAVE
  TRACK 15 AUDIO
    TITLE "Way Up North"
    PERFORMER "Scooter"
    REM COMPOSER ""
    INDEX 01 00:00:00
FILE "16 - Turn Up That Blaster.wav" WAVE
  TRACK 16 AUDIO
    TITLE "Turn Up That Blaster"
    PERFORMER "Scooter"
    REM COMPOSER ""
    INDEX 01 00:00:00
FILE "17 - Sunrise (Here I Am).wav" WAVE
  TRACK 17 AUDIO
    TITLE "Sunrise (Here I Am)"
    PERFORMER "Scooter"
    REM COMPOSER ""
    INDEX 01 00:00:00
FILE "18 - Main Floor.wav" WAVE
  TRACK 18 AUDIO
    TITLE "Main Floor"
    PERFORMER "Scooter"
    REM COMPOSER ""
    INDEX 01 00:00:00
  TRACK 19 AUDIO
    TITLE "Acid Bomb"
    PERFORMER "Scooter"
    REM COMPOSER ""
    INDEX 00 01:34:74
FILE "19 - Acid Bomb.wav" WAVE
    INDEX 01 00:00:00
FILE "20 - Level One.wav" WAVE
  TRACK 20 AUDIO
    TITLE "Level One"
    PERFORMER "Scooter"
    REM COMPOSER ""
    INDEX 01 00:00:00
FILE "21 - Giant's Causeway.wav" WAVE
  TRACK 21 AUDIO
    TITLE "Giant's Causeway"
    PERFORMER "Scooter"
    REM COMPOSER ""
    INDEX 01 00:00:00
FILE "22 - A Little Bit Too Fast.wav" WAVE
  TRACK 22 AUDIO
    TITLE "A Little Bit Too Fast"
    PERFORMER "Scooter"
    REM COMPOSER ""
    INDEX 01 00:00:00
FILE "23 - Soul Train.wav" WAVE
  TRACK 23 AUDIO
    TITLE "Soul Train"
    PERFORMER "Scooter"
    REM COMPOSER ""
    INDEX 01 00:00:00
FILE "24 - The Pusher 2.wav" WAVE
  TRACK 24 AUDIO
    TITLE "The Pusher 2"
    PERFORMER "Scooter"
    REM COMPOSER ""
    INDEX 01 00:00:00
FILE "25 - Lighten Up The Sky.wav" WAVE
  TRACK 25 AUDIO
    TITLE "Lighten Up The Sky"
    PERFORMER "Scooter"
    REM COMPOSER ""
    INDEX 01 00:00:00
FILE "26 - Rhapsody In E.wav" WAVE
  TRACK 26 AUDIO
    TITLE "Rhapsody In E"
    PERFORMER "Scooter"
    REM COMPOSER ""
    INDEX 01 00:00:00
FILE "27 - Coldwater Canyon.wav" WAVE
  TRACK 27 AUDIO
    TITLE "Coldwater Canyon"
    PERFORMER "Scooter"
    REM COMPOSER ""
    INDEX 01 00:00:00
FILE "28 - Back In Time.wav" WAVE
  TRACK 28 AUDIO
    TITLE "Back In Time"
    PERFORMER "Scooter"
    REM COMPOSER ""
    INDEX 01 00:00:00
FILE "29 - The First Time.wav" WAVE
  TRACK 29 AUDIO
    TITLE "The First Time"
    PERFORMER "Scooter"
    REM COMPOSER ""
    INDEX 01 00:00:00
FILE "30 - Stuttgart.wav" WAVE
  TRACK 30 AUDIO
    TITLE "Stuttgart"
    PERFORMER "Scooter"
    REM COMPOSER ""
    INDEX 01 00:00:00
FILE "31 - Bramfeld.wav" WAVE
  TRACK 31 AUDIO
    TITLE "Bramfeld"
    PERFORMER "Scooter"
    REM COMPOSER ""
    INDEX 01 00:00:00
FILE "32 - Unity Without Words (Party II).wav" WAVE
  TRACK 32 AUDIO
    TITLE "Unity Without Words (Party II)"
    PERFORMER "Scooter"
    REM COMPOSER ""
    INDEX 01 00:00:00
FILE "33 - Awekening.wav" WAVE
  TRACK 33 AUDIO
    TITLE "Awekening"
    PERFORMER "Scooter"
    REM COMPOSER ""
    INDEX 01 00:00:00
FILE "34 - Crank It Up.wav" WAVE
  TRACK 34 AUDIO
    TITLE "Crank It Up"
    PERFORMER "Scooter"
    REM COMPOSER ""
    INDEX 01 00:00:00
--
Download / Скачать

Хотите скачать бесплатно? Зарегистрируйтесь на сайте (ссылка на регистрацию). Pirat.ca - самый быстрый торрент трекер в рунете!

Как скачивать  ·   Что такое торрент  ·   Рейтинг и ограничения

Показать сообщения:    
Ответить на тему

Текущее время: Сегодня 03:57

Часовой пояс: GMT + 4



Вы не можете начинать темы
Вы не можете отвечать на сообщения
Вы не можете редактировать свои сообщения
Вы не можете удалять свои сообщения
Вы не можете голосовать в опросах
Вы не можете прикреплять файлы к сообщениям
Вы не можете скачивать файлы

Майнать ▼