(Enigmatic, Chillout, Neo Classic) VA - Magical Beauty: Music That Touches The Heart (2009) [FLAC, tracks+.cue, lossless]

Ответить на тему
 
Автор
Сообщение

Пост 26-Дек-2017 17:06

[Q] 

Борей_64

Корсар

-Magical Beauty: Music That Touches The Heart (2009)-- Год издания: 2009
Страна: World
Жанр: Enigmatic, Chillout, Neo Classic
Продолжительность: 01:12:29-Лейбл издания: TME/DreaMusic (по лицензии Neurodisc Records)
Страна-выпуска диска: Россия
Номер по каталогу: ПР3 CD28152
Формат: FLAC
Битрейт аудио: lossless
Тип рипа: tracks+.cue
Наличие сканов в содержимом раздачи: да-
01. Sleepthief Ft. Kristy Thirsk - Sublunar (Sweet Angel)
02. Amethystium - Autumn Interlude
03. Blue Stone - Breathe
04. Deviations Project - Edelweiss
05. Bella Sonus - Warm Embrace
06. DaKsha - Angel Wings
07. Amethystium - Fable
08. Deviations Project - Dear Old Swanney
09. Sleepthief Ft. Nicola Hitchcock - You Did A Good Thing
10. Blue Stone Ft. Sheyenne Rivers - Substitute For Love
11. Kopas - Spirit Dance
12. Amethystium - Hymnody
13. Sleepthief Ft. Jody Quine - Eurydice
14. Amethystium - Break Of Dawn
15. Deviations Project - Medication
16. Blue Stone - New Beginning
Код:
Exact Audio Copy V1.0 beta 3 from 29. August 2011
EAC extraction logfile from 29. August 2017, 14:57
VA / Magical Beauty (Music That Touches The Heart)
Used drive  : TSSTcorpCDDVDW SE-S084D   Adapter: 1  ID: 1
Read mode               : Secure
Utilize accurate stream : Yes
Defeat audio cache      : Yes
Make use of C2 pointers : No
Read offset correction                      : 6
Overread into Lead-In and Lead-Out          : No
Fill up missing offset samples with silence : Yes
Delete leading and trailing silent blocks   : No
Null samples used in CRC calculations       : Yes
Used interface                              : Native Win32 interface for Win NT & 2000
Gap handling                                : Appended to previous track
Used output format              : User Defined Encoder
Selected bitrate                : 896 kBit/s
Quality                         : High
Add ID3 tag                     : Yes
Command line compressor         : C:\Program Files\FLAC\flac.exe
Additional command line options : -8 -V -T "Artist=%artist%" -T "Title=%title%" -T "Album=%albumtitle%" -T "Date=%year%" -T "TRACKNUMBER=%tracknr%" -T "Genre=%genre%" -T "ALBUMARTIST=%albumartist%" -T "ALBUM ARTIST=%albumartist%" -T "COMMENT=© 2017 RG. LosslesS. ®vsvserg" %source%
TOC of the extracted CD
     Track |   Start  |  Length  | Start sector | End sector
    ---------------------------------------------------------
        1  |  0:00.00 |  4:45.61 |         0    |    21435
        2  |  4:45.61 |  5:45.52 |     21436    |    47362
        3  | 10:31.38 |  3:59.37 |     47363    |    65324
        4  | 14:31.00 |  3:06.68 |     65325    |    79342
        5  | 17:37.68 |  2:58.65 |     79343    |    92757
        6  | 20:36.58 |  3:56.38 |     92758    |   110495
        7  | 24:33.21 |  5:02.28 |    110496    |   133173
        8  | 29:35.49 |  2:54.47 |    133174    |   146270
        9  | 32:30.21 |  4:18.73 |    146271    |   165693
       10  | 36:49.19 |  6:06.07 |    165694    |   193150
       11  | 42:55.26 |  4:28.70 |    193151    |   213320
       12  | 47:24.21 |  4:20.05 |    213321    |   232825
       13  | 51:44.26 |  4:43.33 |    232826    |   254083
       14  | 56:27.59 |  4:20.68 |    254084    |   273651
       15  | 60:48.52 |  4:41.30 |    273652    |   294756
       16  | 65:30.07 |  6:58.32 |    294757    |   326138
Track  1
     Filename C:\vsvserg-Rip\01. Sleepthief Ft. Kristy Thirsk - Sublunar (Sweet Angel).wav
     Pre-gap length  0:00:02.00
     Peak level 84.1 %
     Extraction speed 1.6 X
     Track quality 100.0 %
     Test CRC B510C128
     Copy CRC B510C128
     Cannot be verified as accurate (confidence 4)  [719A2C5C], AccurateRip returned [7CFCBE95]  (AR v2)
     Copy OK
Track  2
     Filename C:\vsvserg-Rip\02. Amethystium - Autumn Interlude.wav
     Peak level 89.1 %
     Extraction speed 1.7 X
     Track quality 100.0 %
     Test CRC 7BA44C20
     Copy CRC 7BA44C20
     Cannot be verified as accurate (confidence 4)  [1AAF32F3], AccurateRip returned [501A3F63]  (AR v2)
     Copy OK
Track  3
     Filename C:\vsvserg-Rip\03. Blue Stone - Breathe.wav
     Peak level 98.8 %
     Extraction speed 1.8 X
     Track quality 100.0 %
     Test CRC AF6C49EE
     Copy CRC AF6C49EE
     Cannot be verified as accurate (confidence 4)  [0A33BCD6], AccurateRip returned [6509A289]  (AR v2)
     Copy OK
Track  4
     Filename C:\vsvserg-Rip\04. Deviations Project - Edelweiss.wav
     Peak level 96.5 %
     Extraction speed 1.4 X
     Track quality 99.9 %
     Test CRC C7E9C62A
     Copy CRC C7E9C62A
     Cannot be verified as accurate (confidence 4)  [C6B53BDF], AccurateRip returned [0E9ED826]  (AR v2)
     Copy OK
Track  5
     Filename C:\vsvserg-Rip\05. Bella Sonus - Warm Embrace.wav
     Peak level 97.6 %
     Extraction speed 1.8 X
     Track quality 100.0 %
     Test CRC 9D33E819
     Copy CRC 9D33E819
     Cannot be verified as accurate (confidence 4)  [79F42497], AccurateRip returned [7DF5B5DB]  (AR v2)
     Copy OK
Track  6
     Filename C:\vsvserg-Rip\06. DaKsha - Angel Wings.wav
     Peak level 97.7 %
     Extraction speed 1.9 X
     Track quality 100.0 %
     Test CRC D48418F4
     Copy CRC D48418F4
     Cannot be verified as accurate (confidence 4)  [0CEDC343], AccurateRip returned [297840A8]  (AR v2)
     Copy OK
Track  7
     Filename C:\vsvserg-Rip\07. Amethystium - Fable.wav
     Peak level 98.8 %
     Extraction speed 2.1 X
     Track quality 100.0 %
     Test CRC 161F1D6F
     Copy CRC 161F1D6F
     Cannot be verified as accurate (confidence 4)  [E7BE6A28], AccurateRip returned [398D1CA7]  (AR v2)
     Copy OK
Track  8
     Filename C:\vsvserg-Rip\08. Deviations Project - Dear Old Swanney.wav
     Peak level 84.9 %
     Extraction speed 1.6 X
     Track quality 99.9 %
     Test CRC 180B8B71
     Copy CRC 180B8B71
     Cannot be verified as accurate (confidence 4)  [F923F31D], AccurateRip returned [62C6698E]  (AR v2)
     Copy OK
Track  9
     Filename C:\vsvserg-Rip\09. Sleepthief Ft. Nicola Hitchcock - You Did A Good Thing.wav
     Peak level 84.1 %
     Extraction speed 1.9 X
     Track quality 99.9 %
     Test CRC FD4F49A6
     Copy CRC FD4F49A6
     Cannot be verified as accurate (confidence 4)  [ECB38546], AccurateRip returned [F059D3A3]  (AR v2)
     Copy OK
Track 10
     Filename C:\vsvserg-Rip\10. Blue Stone Ft. Sheyenne Rivers - Substitute For Love.wav
     Peak level 97.7 %
     Extraction speed 2.3 X
     Track quality 100.0 %
     Test CRC 624E3CFA
     Copy CRC 624E3CFA
     Cannot be verified as accurate (confidence 4)  [936BC10F], AccurateRip returned [0C1D06C2]  (AR v2)
     Copy OK
Track 11
     Filename C:\vsvserg-Rip\11. Kopas - Spirit Dance.wav
     Peak level 100.0 %
     Extraction speed 2.0 X
     Track quality 99.9 %
     Test CRC 5BFCF891
     Copy CRC 5BFCF891
     Cannot be verified as accurate (confidence 4)  [76C8CABF], AccurateRip returned [EE6D63EB]  (AR v2)
     Copy OK
Track 12
     Filename C:\vsvserg-Rip\12. Amethystium - Hymnody.wav
     Peak level 93.3 %
     Extraction speed 2.3 X
     Track quality 100.0 %
     Test CRC 2F7CB6EF
     Copy CRC 2F7CB6EF
     Cannot be verified as accurate (confidence 4)  [D55D78A1], AccurateRip returned [D06D019A]  (AR v2)
     Copy OK
Track 13
     Filename C:\vsvserg-Rip\13. Sleepthief Ft. Jody Quine - Eurydice.wav
     Peak level 87.1 %
     Extraction speed 2.3 X
     Track quality 100.0 %
     Test CRC 45776326
     Copy CRC 45776326
     Cannot be verified as accurate (confidence 4)  [295548E5], AccurateRip returned [1C6515BC]  (AR v2)
     Copy OK
Track 14
     Filename C:\vsvserg-Rip\14. Amethystium - Break Of Dawn.wav
     Peak level 93.3 %
     Extraction speed 2.0 X
     Track quality 99.9 %
     Test CRC 29E9F095
     Copy CRC 29E9F095
     Cannot be verified as accurate (confidence 4)  [83C4F0DE], AccurateRip returned [F996FB35]  (AR v2)
     Copy OK
Track 15
     Filename C:\vsvserg-Rip\15. Deviations Project - Medication.wav
     Peak level 87.9 %
     Extraction speed 2.2 X
     Track quality 100.0 %
     Test CRC 2502FC05
     Copy CRC 2502FC05
     Cannot be verified as accurate (confidence 4)  [409B412C], AccurateRip returned [E30A9F32]  (AR v2)
     Copy OK
Track 16
     Filename C:\vsvserg-Rip\16. Blue Stone - New Beginning.wav
     Peak level 78.5 %
     Extraction speed 1.4 X
     Track quality 99.9 %
     Test CRC 4AD77DB8
     Copy CRC 4AD77DB8
     Cannot be verified as accurate (confidence 4)  [ACEE7515], AccurateRip returned [E6D06B1C]  (AR v2)
     Copy OK
No tracks could be verified as accurate
You may have a different pressing from the one(s) in the database
No errors occurred
End of status report
---- CUETools DB Plugin V2.1.4
[CTDB TOCID: IR6FRx3kev3rx7YCpOGb721bRUs-] found
Submit result: IR6FRx3kev3rx7YCpOGb721bRUs- has been confirmed
Track | CTDB Status
  1   | (2/2) Accurately ripped
  2   | (2/2) Accurately ripped
  3   | (2/2) Accurately ripped
  4   | (2/2) Accurately ripped
  5   | (2/2) Accurately ripped
  6   | (2/2) Accurately ripped
  7   | (2/2) Accurately ripped
  8   | (2/2) Accurately ripped
  9   | (2/2) Accurately ripped
10   | (2/2) Accurately ripped
11   | (2/2) Accurately ripped
12   | (2/2) Accurately ripped
13   | (2/2) Accurately ripped
14   | (2/2) Accurately ripped
15   | (2/2) Accurately ripped
16   | (2/2) Accurately ripped
==== Log checksum 10ACC563A9ABD9147E71E9A494C8F198E9032470E740286B1146CAD58E9143A1 ====
Код:
REM GENRE Enigmatic
REM DATE 2009
REM DISCID F510FC10
REM COMMENT "ExactAudioCopy v1.0b3"
PERFORMER "VA"
TITLE "Magical Beauty (Music That Touches The Heart)"
FILE "01. Sleepthief Ft. Kristy Thirsk - Sublunar (Sweet Angel).flac" WAVE
  TRACK 01 AUDIO
    TITLE "Sublunar (Sweet Angel)"
    PERFORMER "Sleepthief Ft. Kristy Thirsk"
    INDEX 01 00:00:00
FILE "02. Amethystium - Autumn Interlude.flac" WAVE
  TRACK 02 AUDIO
    TITLE "Autumn Interlude"
    PERFORMER "Amethystium"
    INDEX 01 00:00:00
FILE "03. Blue Stone - Breathe.flac" WAVE
  TRACK 03 AUDIO
    TITLE "Breathe"
    PERFORMER "Blue Stone"
    INDEX 01 00:00:00
FILE "04. Deviations Project - Edelweiss.flac" WAVE
  TRACK 04 AUDIO
    TITLE "Edelweiss"
    PERFORMER "Deviations Project"
    INDEX 01 00:00:00
FILE "05. Bella Sonus - Warm Embrace.flac" WAVE
  TRACK 05 AUDIO
    TITLE "Warm Embrace"
    PERFORMER "Bella Sonus"
    INDEX 01 00:00:00
FILE "06. DaKsha - Angel Wings.flac" WAVE
  TRACK 06 AUDIO
    TITLE "Angel Wings"
    PERFORMER "DaKsha"
    INDEX 01 00:00:00
FILE "07. Amethystium - Fable.flac" WAVE
  TRACK 07 AUDIO
    TITLE "Fable"
    PERFORMER "Amethystium"
    INDEX 01 00:00:00
FILE "08. Deviations Project - Dear Old Swanney.flac" WAVE
  TRACK 08 AUDIO
    TITLE "Dear Old Swanney"
    PERFORMER "Deviations Project"
    INDEX 01 00:00:00
FILE "09. Sleepthief Ft. Nicola Hitchcock - You Did A Good Thing.flac" WAVE
  TRACK 09 AUDIO
    TITLE "You Did A Good Thing"
    PERFORMER "Sleepthief Ft. Nicola Hitchcock"
    INDEX 01 00:00:00
FILE "10. Blue Stone Ft. Sheyenne Rivers - Substitute For Love.flac" WAVE
  TRACK 10 AUDIO
    TITLE "Substitute For Love"
    PERFORMER "Blue Stone Ft. Sheyenne Rivers"
    INDEX 01 00:00:00
FILE "11. Kopas - Spirit Dance.flac" WAVE
  TRACK 11 AUDIO
    TITLE "Spirit Dance"
    PERFORMER "Kopas"
    INDEX 01 00:00:00
FILE "12. Amethystium - Hymnody.flac" WAVE
  TRACK 12 AUDIO
    TITLE "Hymnody"
    PERFORMER "Amethystium"
    INDEX 01 00:00:00
FILE "13. Sleepthief Ft. Jody Quine - Eurydice.flac" WAVE
  TRACK 13 AUDIO
    TITLE "Eurydice"
    PERFORMER "Sleepthief Ft. Jody Quine"
    INDEX 01 00:00:00
FILE "14. Amethystium - Break Of Dawn.flac" WAVE
  TRACK 14 AUDIO
    TITLE "Break Of Dawn"
    PERFORMER "Amethystium"
    INDEX 01 00:00:00
FILE "15. Deviations Project - Medication.flac" WAVE
  TRACK 15 AUDIO
    TITLE "Medication"
    PERFORMER "Deviations Project"
    INDEX 01 00:00:00
FILE "16. Blue Stone - New Beginning.flac" WAVE
  TRACK 16 AUDIO
    TITLE "New Beginning"
    PERFORMER "Blue Stone"
    INDEX 01 00:00:00
Код:
AUDIOCHECKER v2.0 beta (build 457) - by Dester - opdester@freemail.hu
~~~~~~~~~~~~~~~~~~~~~~~~~~~~~~~~~~
-=== НЕ РЕДАКТИРУЙТЕ ЭТОТ ФАЙЛ! ===-
Путь: ...\VA - Magical Beauty Music (That Touches The Heart)
01 -=- 01. Sleepthief Ft. Kristy Thirsk - Sublunar (Sweet Angel).flac -=- CDDA (100%)
02 -=- 02. Amethystium - Autumn Interlude.flac -=- CDDA (99%)
03 -=- 03. Blue Stone - Breathe.flac -=- CDDA (99%)
04 -=- 04. Deviations Project - Edelweiss.flac -=- CDDA (99%)
05 -=- 05. Bella Sonus - Warm Embrace.flac -=- CDDA (100%)
06 -=- 10. Blue Stone Ft. Sheyenne Rivers - Substitute For Love — копия.flac -=- CDDA (100%)
07 -=- 06. DaKsha - Angel Wings.flac -=- CDDA (99%)
08 -=- 07. Amethystium - Fable.flac -=- CDDA (100%)
09 -=- 08. Deviations Project - Dear Old Swanney.flac -=- CDDA (100%)
10 -=- 09. Sleepthief Ft. Nicola Hitchcock - You Did A Good Thing.flac -=- CDDA (100%)
11 -=- 10. Blue Stone Ft. Sheyenne Rivers - Substitute For Love.flac -=- CDDA (100%)
12 -=- 11. Kopas - Spirit Dance.flac -=- CDDA (99%)
13 -=- 12. Amethystium - Hymnody.flac -=- CDDA (100%)
14 -=- 13. Sleepthief Ft. Jody Quine - Eurydice.flac -=- CDDA (99%)
15 -=- 14. Amethystium - Break Of Dawn.flac -=- CDDA (100%)
16 -=- 15. Deviations Project - Medication.flac -=- CDDA (100%)
17 -=- 16. Blue Stone - New Beginning.flac -=- CDDA (100%)
Сводка 99,65% CDDA
164946164
Потрясающей красоты сборник, где состав исполнителей красноречивее любого, даже самого восторженного комментария. Magical Beauty своего рода обзорный материал, знакомящий слушателя с треками лучших из новых последователей проекта Энигма. Здесь мелодии одновременно изысканны в своем звучании и в то же время доступны для самого широкого круга слушателей. Стилистически альбом выдержан в едином ключе - от легкого дыхания Enigmatic, через Ethereal Pop и Chillout, к изящному Neo Classic. Несмотря на изначально строгий нордический характер этих направлений, альбом наполнен мягкими, теплыми оттенками, его музыка качественна и глубока, его гармонии свежи и естественны…
Download / Скачать

Хотите скачать бесплатно? Зарегистрируйтесь на сайте (ссылка на регистрацию). Pirat.ca - самый быстрый торрент трекер в рунете!

Как скачивать  ·   Что такое торрент  ·   Рейтинг и ограничения

Показать сообщения:    
Ответить на тему

Текущее время: Сегодня 04:23

Часовой пояс: GMT + 4



Вы не можете начинать темы
Вы не можете отвечать на сообщения
Вы не можете редактировать свои сообщения
Вы не можете удалять свои сообщения
Вы не можете голосовать в опросах
Вы не можете прикреплять файлы к сообщениям
Вы не можете скачивать файлы

Майнать ▼