(Heavy Metal) Кипелов - Звёзды и кресты (MediaBox) - 2017 [FLAC, image +.cue, lossless]

Ответить на тему
 
Автор
Сообщение

Пост 30-Дек-2017 18:52

[Q] 

sergej644

-Кипелов - Звёзды и кресты (MediaBox)--
Год издания: 2017
Страна: Russia
Жанр: Heavy Metal
Продолжительность: -Лейбл издания: Navigator Records
Страна-выпуска диска: Russia
Номер по каталогу: NR 2217 CDp DL-LTD-Формат: FLAC
Битрейт аудио: Lossless
Тип рипа: image +.cue
Наличие сканов в содержимом раздачи: да
-

01. Интро (1:50)
02. Звёзды и Кресты (5:24)
03. Рождённый Летать (5:18)
04. Дама Пик (6:35)
05. Ледяной Дождь (5:54)
06. Белый Ад (4:07)
07. Выше (5:43)
08. Жажда Невозможного (6:39)
09. Тёмная Башня (5:47)
10. Косово Поле (10:04)
11. Ледяной Дождь (Инструментальная версия) (5:54)
-
Код:
Exact Audio Copy V1.3 from 2. September 2016
EAC extraction logfile from 3. November 2017, 22:36
Кипелов / Звезды и Кресты
Used drive  : ASUS    DRW-24B3LT   Adapter: 1  ID: 0
Read mode               : Secure
Utilize accurate stream : Yes
Defeat audio cache      : Yes
Make use of C2 pointers : No
Read offset correction                      : 6
Overread into Lead-In and Lead-Out          : No
Fill up missing offset samples with silence : Yes
Delete leading and trailing silent blocks   : No
Null samples used in CRC calculations       : Yes
Used interface                              : Native Win32 interface for Win NT & 2000
Used output format : Internal WAV Routines
Sample format      : 44.100 Hz; 16 Bit; Stereo
TOC of the extracted CD
     Track |   Start  |  Length  | Start sector | End sector
    ---------------------------------------------------------
        1  |  0:00.00 |  1:50.35 |         0    |     8284
        2  |  1:50.35 |  5:24.22 |      8285    |    32606
        3  |  7:14.57 |  5:17.71 |     32607    |    56452
        4  | 12:32.53 |  6:35.37 |     56453    |    86114
        5  | 19:08.15 |  5:54.14 |     86115    |   112678
        6  | 25:02.29 |  4:07.04 |    112679    |   131207
        7  | 29:09.33 |  5:43.32 |    131208    |   156964
        8  | 34:52.65 |  6:39.06 |    156965    |   186895
        9  | 41:31.71 |  5:46.41 |    186896    |   212886
       10  | 47:18.37 | 10:03.73 |    212887    |   258184
       11  | 57:22.35 |  5:54.16 |    258185    |   284750
Range status and errors
Selected range
     Filename D:\Osieron\My Documents\Desktop\Test&Copy\Кипелов - Звезды и Кресты.wav
     Peak level 90.8 %
     Extraction speed 6.3 X
     Range quality 100.0 %
     Test CRC 6C9E5E2F
     Copy CRC 6C9E5E2F
     Copy OK
No errors occurred
AccurateRip summary
Track  1  not present in database
Track  2  not present in database
Track  3  not present in database
Track  4  not present in database
Track  5  not present in database
Track  6  not present in database
Track  7  not present in database
Track  8  not present in database
Track  9  not present in database
Track 10  not present in database
Track 11  not present in database
None of the tracks are present in the AccurateRip database
End of status report
Код:
REM GENRE "Hard Rock"
REM DATE 2017
REM DISCID 800ED40B
REM COMMENT "(Mould ring text): UEP-CD Лицензия МПТР России ВАФ № 77-15"
PERFORMER "Кипелов"
TITLE "Звёзды и кресты"
REM COMPOSER ""
CATALOG 4692655990988
REM DISCNUMBER 1
REM TOTALDISCS 1
FILE "Кипелов - Звёзды и кресты.flac" WAVE
  TRACK 01 AUDIO
    TITLE "Интро"
    PERFORMER "Кипелов"
    REM COMPOSER ""
    INDEX 01 00:00:00
  TRACK 02 AUDIO
    TITLE "Звёзды и Кресты"
    PERFORMER "Кипелов"
    REM COMPOSER ""
    INDEX 01 01:50:35
  TRACK 03 AUDIO
    TITLE "Рождённый Летать"
    PERFORMER "Кипелов"
    REM COMPOSER ""
    INDEX 01 07:14:57
  TRACK 04 AUDIO
    TITLE "Дама Пик"
    PERFORMER "Кипелов"
    REM COMPOSER ""
    INDEX 01 12:32:53
  TRACK 05 AUDIO
    TITLE "Ледяной Дождь"
    PERFORMER "Кипелов"
    REM COMPOSER ""
    INDEX 01 19:08:15
  TRACK 06 AUDIO
    TITLE "Белый Ад"
    PERFORMER "Кипелов"
    REM COMPOSER ""
    INDEX 01 25:02:29
  TRACK 07 AUDIO
    TITLE "Выше"
    PERFORMER "Кипелов"
    REM COMPOSER ""
    INDEX 01 29:09:33
  TRACK 08 AUDIO
    TITLE "Жажда Невозможного"
    PERFORMER "Кипелов"
    REM COMPOSER ""
    INDEX 01 34:52:65
  TRACK 09 AUDIO
    TITLE "Тёмная Башня"
    PERFORMER "Кипелов"
    REM COMPOSER ""
    INDEX 01 41:31:71
  TRACK 10 AUDIO
    TITLE "Косово Поле"
    PERFORMER "Кипелов"
    REM COMPOSER ""
    INDEX 01 47:18:37
  TRACK 11 AUDIO
    TITLE "Ледяной Дождь (Инструментальная версия)"
    PERFORMER "Кипелов"
    REM COMPOSER ""
    INDEX 01 57:22:35
--
Download / Скачать

Хотите скачать бесплатно? Зарегистрируйтесь на сайте (ссылка на регистрацию). Pirat.ca - самый быстрый торрент трекер в рунете!

Как скачивать  ·   Что такое торрент  ·   Рейтинг и ограничения

Показать сообщения:    
Ответить на тему

Текущее время: Сегодня 11:05

Часовой пояс: GMT + 4



Вы не можете начинать темы
Вы не можете отвечать на сообщения
Вы не можете редактировать свои сообщения
Вы не можете удалять свои сообщения
Вы не можете голосовать в опросах
Вы не можете прикреплять файлы к сообщениям
Вы не можете скачивать файлы

Майнать ▼