Аисты / Storks (Николас Столлер, Даг Свитлэнд / Nicholas Stoller, Doug Sweetland) [2016 г., мультфильм, фэнтези, комедия, приключения, семейный, BDRip-AVC] Dub [iTunes] + Sub (Rus)

Ответить на тему
 
Автор
Сообщение

Пост 15-Дек-2016 08:09

[Q] 

aleksey99

--Аисты / Storks--«From the studio that delivered The Lego Movie»-- Производство: США, Stoller Global Solutions, Warner Animation Group, Warner Bros. Animation
Год выпуска: 2016 г.
Жанр: мультфильм, фэнтези, комедия, приключения, семейный
Продолжительность: 01:22:25--Мировая премьера: 22 сентября 2016
Российская премьера: 22 сентября 2016, «Каро-Премьер»--Перевод: Профессиональный (полное дублирование) [iTunes]--Режиссер: Николас Столлер, Даг Свитлэнд / Nicholas Stoller, Doug Sweetland--В ролях: Энди Сэмберг, Кэти Краун, Келси Грэммер, Дженнифер Энистон, Тай Буррелл, Антон Старкман, Кигэн-Майкл Ки, Джордан Пил, Дэнни Трехо, Стив Гликман--Описание: Аисты приносят детей… или, во всяком случае, раньше приносили. Теперь же они занимаются доставкой посылок для огромного сайта интернет-продаж. Джуниор, лучший аист в курьерской компании, должен пойти на повышение, но он случайно активирует машину для создания детей и получает очаровательную, но совершенно незапланированную девочку.
Пытаясь доставить эту «посылку» до того, как босс узнает о произошедшем, Джуниор и его подруга Лютик, единственный человек на Горе Аистов, решаются на свою первую доставку ребёнка и отправляются в безумное и насыщенное удивительными открытиями приключение, благодаря которому многие семьи могут стать полными, а аисты — вернуться к своей истинной миссии на Земле.-- --Качество видео: BDRip-AVC
Контейнер: MKV
Видео кодек: AVC/H.264
Аудио кодек: AC3
Видео: 720x302 (16:9), 23.976 fps, x264 ~2017 kbps avg, 0.387 bit/pixel
Аудио: 48 kHz, AC3 Dolby Digital, 3/2 (L,C,R,l,r) + LFE ch, ~384 kbps
Cубтитры: русские (forced).
Общее
Уникальный идентификатор : 225468892091437239095994030346159608439 (0xA99FBAA507E78D7388F8289491495277)
Полное имя : H:\Torrent2\Storks.2016.BDRip(AVC).mkv
Формат : Matroska
Версия формата : Version 2
Размер файла : 1,46 Гбайт
Продолжительность : 1 ч. 26 м.
Общий поток : 2403 Кбит/сек
Дата кодирования : UTC 2016-12-14 03:40:52
Программа кодирования : mkvmerge v7.8.0 ('River Man') 32bit built on Apr 3 2015 12:11:22
Библиотека кодирования : libebml v1.3.1 + libmatroska v1.4.2
Видео
Идентификатор : 1
Формат : AVC
Формат/Информация : Advanced Video Codec
Профиль формата : High@L4.1
Параметр CABAC формата : Да
Параметр ReFrames формата : 10 кадров
Идентификатор кодека : V_MPEG4/ISO/AVC
Продолжительность : 1 ч. 26 м.
Битрейт : 2017 Кбит/сек
Ширина : 720 пикселей
Высота : 302 пикселя
Соотношение сторон : 2,40:1
Режим частоты кадров : Постоянный
Частота кадров : 23,976 (24000/1001) кадра/сек
Цветовое пространство : YUV
Субдискретизация насыщенности : 4:2:0
Битовая глубина : 8 бит
Тип развёртки : Прогрессивная
Бит/(Пиксели*Кадры) : 0.387
Размер потока : 1,20 Гбайт (82%)
Библиотека кодирования : x264 core 146 r2538 121396c
Настройки программы : cabac=1 / ref=10 / deblock=1:-3:-3 / analyse=0x3:0x133 / me=umh / subme=11 / psy=1 / psy_rd=1.00:0.03 / mixed_ref=1 / me_range=48 / chroma_me=1 / trellis=2 / 8x8dct=1 / cqm=0 / deadzone=21,11 / fast_pskip=0 / chroma_qp_offset=-3 / threads=6 / lookahead_threads=1 / sliced_threads=0 / nr=0 / decimate=0 / interlaced=0 / bluray_compat=0 / constrained_intra=0 / bframes=10 / b_pyramid=2 / b_adapt=2 / b_bias=0 / direct=3 / weightb=1 / open_gop=0 / weightp=2 / keyint=240 / keyint_min=23 / scenecut=40 / intra_refresh=0 / rc_lookahead=40 / rc=2pass / mbtree=0 / bitrate=2017 / ratetol=1.0 / qcomp=0.60 / qpmin=0 / qpmax=69 / qpstep=4 / cplxblur=20.0 / qblur=0.5 / vbv_maxrate=50000 / vbv_bufsize=62500 / nal_hrd=none / filler=0 / ip_ratio=1.40 / pb_ratio=1.30 / aq=1:1.00
Default : Да
Forced : Нет
Аудио
Идентификатор : 2
Формат : AC-3
Формат/Информация : Audio Coding 3
Расширение режима : CM (complete main)
Параметр Endianness формата : Big
Идентификатор кодека : A_AC3
Продолжительность : 1 ч. 26 м.
Вид битрейта : Постоянный
Битрейт : 384 Кбит/сек
Каналы : 6 каналов
Расположение каналов : Front: L C R, Side: L R, LFE
Частота : 48,0 КГц
Частота кадров : 31,250 кадров/сек (1536 spf)
Метод сжатия : С потерями
Размер потока : 239 Мбайт (16%)
Default : Да
Forced : Нет
Текст
Идентификатор : 3
Формат : UTF-8
Идентификатор кодека : S_TEXT/UTF8
Идентификатор кодека/Информация : UTF-8 Plain Text
Заголовок : Forced
Язык : Russian
Default : Да
Forced : Нет
Меню
00:00:00.000 : en:Chapter 1
00:10:26.500 : en:Chapter 2
00:20:35.734 : en:Chapter 3
00:30:24.405 : en:Chapter 4
00:39:30.034 : en:Chapter 5
00:50:24.479 : en:Chapter 6
00:59:24.435 : en:Chapter 7
01:07:06.022 : en:Chapter 8
01:14:28.297 : en:Chapter 9
01:20:53.598 : en:Chapter 10
Трейлер
Download / Скачать

Хотите скачать бесплатно? Зарегистрируйтесь на сайте (ссылка на регистрацию). Pirat.ca - самый быстрый торрент трекер в рунете!

Как скачивать  ·   Что такое торрент  ·   Рейтинг и ограничения

aka_johnny

Флибустьер

Пост 15-Дек-2016 20:06 (спустя 11 часов)

[Q] 

!COOL!
Лови бочку
[Профиль]  [ЛС] 

bull271174

Флибустьер

Пост 18-Дек-2016 10:33 (спустя 2 дня 14 часов)

[Q] 

Средний муль. Не стоит тратить время.
[Профиль]  [ЛС] 

RostislavKis

Морской Волк

17

Пост 19-Дек-2016 16:40 (спустя 1 день 6 часов)

[Q] 

Все равно смотреть нечего! =) Лови бочку

_________________
[Профиль]  [ЛС] 

teriv

Морской Волк

34

Пост 02-Янв-2017 14:14 (спустя 13 дней)

[Q] 

Да ну пару раз можно посмотреть, но не в коллекцию.

_________________
[Профиль]  [ЛС] 

pan_tera

Корсар

Пост 02-Янв-2017 15:59 (спустя 1 час 45 минут)

[Q] 

Добрый веселый мульт с подтекстом.
[Профиль]  [ЛС] 

a_kuz

Юнга

Пост 05-Янв-2017 17:47 (спустя 3 дня)

[Q] 

На любителя Вполне хороший мультик,но всёже на 1-2 раза посмотреть Лови бочку
[Профиль]  [ЛС] 

lexaspirit

Пост 12-Янв-2017 17:30 (спустя 6 дней)

[Q] 

Очень понравился. Есть над чем посмеяться. Стая волков в мультике просто отпад

_________________
-------------------- ----------------------
[Профиль]  [ЛС] 

Пост 21-Янв-2017 09:56 (спустя 8 дней)

Топик был перенесен из форума Новинки (HD|DVD|BD| TV|SAT|PDTV| - Rips) в форум Зарубежные полнометражные мультфильмы
aleksey99
 

savicus

Корсар

Пост 11-Фев-2017 14:36 (спустя 29 дней)

[Q] 

Действительно приятный мультик, получил массу удовольствия.
Автору респект!!!
[Профиль]  [ЛС] 

S_N_A_K_E

Флибустьер

Пост 21-Апр-2017 12:56 (спустя 2 месяца 9 дней)

[Q] 

удовольствием даже сам посмотрел несколько раз Лови бочку
[Профиль]  [ЛС] 

usya5

Корсар

Пост 25-Ноя-2017 20:51 (спустя 7 месяцев 4 дня)

[Q] 

почему-то не смотрели((
[Профиль]  [ЛС] 

Ливень

Корсар

Пост 02-Янв-2018 22:59 (спустя 1 месяц 7 дней)

[Q] 

отличный семейный мультик, особенно, когда надо объяснить ребенку, откуда дети берутся !COOL!
[Профиль]  [ЛС] 
Показать сообщения:    
Ответить на тему

Текущее время: Сегодня 11:21

Часовой пояс: GMT + 4



Вы не можете начинать темы
Вы не можете отвечать на сообщения
Вы не можете редактировать свои сообщения
Вы не можете удалять свои сообщения
Вы не можете голосовать в опросах
Вы не можете прикреплять файлы к сообщениям
Вы не можете скачивать файлы

Майнать ▼