Перестрелка / Free Fire (Бен Уитли / Ben Wheatley) [2016 г., боевик, триллер, комедия, криминал, BDRip] Dub [Лицензия]

Ответить на тему
 
Автор
Сообщение

Пост 21-Ноя-2017 21:31

[Q] 

ara1205

-Перестрелка / Free Fire-- Производство: Великобритания, Франция
Год выпуска: 2016 г.
Жанр: боевик, триллер, комедия, криминал
Продолжительность: 01:30:34
Перевод: Профессиональный (полное дублирование) [Лицензия]-Режиссёр: Бен Уитли / Ben Wheatley-В ролях: Энцо Чиленти, Сэм Райли, Майкл Смайли, Бри Ларсон, Киллиан Мёрфи, Арми Хаммер, Шарлто Копли, Бабу Сизей, Ноа Тейлор, Джек Рейнор-Описание: Когда подпольная сделка по продаже оружия феерически летит под откос, целый склад превращается в масштабное поле битвы. Слова закончились, и заговорили стволы. Приз в игре на выживание — кейс с большой суммой денег, но унести его не так просто. Здесь вооружены все, каждый сам за себя, а хаос правит бал.- -Качество видео: BDRip
Контейнер: AVI
Видео кодек: XviD
Аудио кодек: AC3
Видео: 720х304, 23,976 fps, 1853 Kbps, 0.353 bits/pixel
Аудио: 48 kHz, AC3 Dolby Digital, 6 ch, 448 Kbps
Cубтитры: отсутствуют-
Общее
Полное имя : C:\Users\Admin\Pictures\Перестрелка\Perestrelka.2016.BDRip.[pirat.ca].avi
Формат : AVI
Формат/Информация : Audio Video Interleave
Размер файла : 1,46 Гбайт
Продолжительность : 1 ч. 30 м.
Общий поток : 2310 Кбит/сек
Программа кодирования : VirtualDubMod 1.5.10.2 (build 2540/release)
Библиотека кодирования : VirtualDubMod build 2540/release
Видео
Идентификатор : 0
Формат : MPEG-4 Visual
Профиль формата : Advanced [email protected]
Параметр BVOP формата : 1
Параметр QPel формата : Нет
Параметр GMC формата : Без точки перехода
Параметр матрицы формата : Выборочная
Идентификатор кодека : XVID
Идентификатор кодека/Подсказка : XviD
Продолжительность : 1 ч. 30 м.
Битрейт : 1853 Кбит/сек
Ширина : 720 пикселей
Высота : 304 пикселя
Соотношение сторон : 2,35:1
Частота кадров : 23,976 кадра/сек
Цветовое пространство : YUV
Субдискретизация насыщенности : 4:2:0
Битовая глубина : 8 бит
Тип развёртки : Прогрессивная
Метод сжатия : С потерями
Бит/(Пиксели*Кадры) : 0.353
Размер потока : 1,17 Гбайт (80%)
Библиотека кодирования : XviD 73
Аудио
Идентификатор : 1
Формат : AC-3
Формат/Информация : Audio Coding 3
Расширение режима : CM (complete main)
Параметр Endianness формата : Big
Идентификатор кодека : 2000
Продолжительность : 1 ч. 30 м.
Вид битрейта : Постоянный
Битрейт : 448 Кбит/сек
Каналы : 6 каналов
Расположение каналов : Front: L C R, Side: L R, LFE
Частота : 48,0 КГц
Битовая глубина : 16 бит
Метод сжатия : С потерями
Размер потока : 290 Мбайт (19%)
Выравнивание : Разделение по промежуткам
Продолжительность промежутка : 42 мс. (1,00 видеокадр)
Время предзагрузки промежутка : 500 мс.
-
-
Download / Скачать

Хотите скачать бесплатно? Зарегистрируйтесь на сайте (ссылка на регистрацию). Pirat.ca - самый быстрый торрент трекер в рунете!

Как скачивать  ·   Что такое торрент  ·   Рейтинг и ограничения

Alcor

Морской Волк

Пост 20-Дек-2017 18:23 (спустя 28 дней)

[Q] 

Неплохой боевичок. Посмотрел практически на одном дыхании. Ещё и персонажи прикольные)) Дублирован фильм тоже хорошо.
Спасибо!!! Автору респект!!!
[Профиль]  [ЛС] 

putnikugra

Шкипер

Пост 21-Дек-2017 01:31 (спустя 7 часов)

[Q] 

Шикарнейший фильм, твердая 10/10!
[Профиль]  [ЛС] 

bolin

Флибустьер

Пост 21-Дек-2017 21:48 (спустя 20 часов)

[Q] 

Спасибо большое за раздачу!
[Профиль]  [ЛС] 

msss

Корсар

Пост 23-Дек-2017 11:07 (спустя 1 день 13 часов)

[Q] 

Неплохой, есть харизматичные персонажи, и даже сопереживание. Но 10 из 10 конечно не дал бы, 8/10 норм!
[Профиль]  [ЛС] 

usya5

Корсар

Пост 23-Дек-2017 11:31 (спустя 24 минуты)

[Q] 

Раздающему Лови бочку ,
но 10/10 для этого фильма слишком круто!
[Профиль]  [ЛС] 

rampage-2

Морской Волк

Пост 06-Янв-2018 16:49 (спустя 14 дней)

[Q] 

Давненько я не чего подобного не видел, прям вспомнил старые фильмы в стиле: Тарантино. Н шедевр, но очень хорош!!!
[Профиль]  [ЛС] 

fishman

Флибустьер

Пост 07-Янв-2018 22:00 (спустя 1 день 5 часов)

[Q] 

Спасибо!!! rum

_________________
|___|___|___|___|___|___|___|__|__
__|__|__|_Биться головой_|___|___|
|___|___|___|__сюда!!___|___|__|__
__|___|___|___|___|___|___|__|__
[Профиль]  [ЛС] 

qwers1

Шкипер

Пост 08-Янв-2018 01:04 (спустя 3 часа)

[Q] 

Не стоит внимания, ни секунды.По 10-ти бальной шкале минус единица!Жаль потраченного времени на такой "шедевр"
[Профиль]  [ЛС] 

Пост 13-Янв-2018 10:38 (спустя 5 дней)

Топик был перенесен из форума Новинки (HD|DVD|BD| TV|SAT|PDTV| - Rips) в форум Фильмы 2010 - 2017 г.г.
aleksey99
 
Показать сообщения:    
Ответить на тему

Текущее время: Сегодня 22:36

Часовой пояс: GMT + 4



Вы не можете начинать темы
Вы не можете отвечать на сообщения
Вы не можете редактировать свои сообщения
Вы не можете удалять свои сообщения
Вы не можете голосовать в опросах
Вы не можете прикреплять файлы к сообщениям
Вы не можете скачивать файлы

Майнать ▼