Отель «Гранд Будапешт» / The Grand Budapest Hotel (Уэс Андерсон / Wes Anderson) [2014 г., Комедия, детектив, приключения, криминал, BDRip-AVC] Dub (Лицензия) + Sub (Eng) + Original (Eng)

Ответить на тему
 
Автор
Сообщение

Пост 06-Июн-2014 21:49

[Q] 

LPPI

Гроза морей

-Отель «Гранд Будапешт» / The Grand Budapest Hotel- Производство: Великобритания, Германия, Scott Rudin Productions, Indian Paintbrush, Studio Babelsberg
Год выпуска: 2014 г.
Жанр: Комедия, детектив, приключения, криминал
Продолжительность: 01:39:54
Мировая премьера: 6 февраля 2014
Российская премьера: 13 марта 2014, «Двадцатый Век Фокс СНГ»
Дата выхода DVD: 10 июля 2014, «Двадцатый Век Фокс СНГ»
Дата выхода Blu-Ray: 10 июля 2014, «Двадцатый Век Фокс СНГ»
Перевод: Профессиональный (полное дублирование) [Лицензия]
Оригинальный аудиопоток: английский-Режиссер: Уэс Андерсон / Wes Anderson
В ролях: Рэйф Файнс, Тони Револори, Сирша Ронан, Эдриан Броуди, Уиллем Дефо, Ф. Мюррэй Абрахам, Джуд Лоу, Эдвард Нортон, Джефф Голдблюм, Харви Кейтель-Описание: Фильм рассказывает об увлекательных приключениях легендарного консьержа Густава и его юного друга, портье Зеро Мустафы. Сотрудники гостиницы становятся свидетелями кражи и поисков бесценных картин эпохи Возрождения, борьбы за огромное состояние богатой семьи и… драматических изменений в Европе между двумя кровопролитными войнами XX века.- -Качество видео: BDRip-AVC
Контейнер: MKV
Видео кодек: H.264
Аудио кодек: AC3
Видео: 1024x552 (1.85:1), 2 357 Kbps, 23.976 fps, 0.174 bit/pix
Аудио: 384 Kbps, 6 ch, 48.0 KHz [Rus, Dub]
Аудио #2: 384 Kbps, 6 ch, 48.0 KHz [Eng, Original]
Cубтитры: английские (Forced, Full, SDH, SDH-Colored)
Дополнительно: Сохранены оригинальные чаптеры как на Blu-ray.
General
Unique ID : 251444734646288230636039431875823500776 (0xBD2A7E8FC72E32F89C8F41E0F7797DE8)
Complete name : D:\The.grand.budapest.hotel.2014.D.BDRip-AVC.mkv
Format : Matroska
Format version : Version 2
File size : 2.18 GiB
Duration : 1h 39mn
Overall bit rate : 3 124 Kbps
Encoded date : UTC 2014-06-06 12:05:39
Writing application : mkvmerge v2.9.9 ('Tutu') built on Nov 25 2009 21:13:32
Writing library : libebml v0.7.9 + libmatroska v0.8.1
Video
ID : 1
Format : AVC
Format/Info : Advanced Video Codec
Format profile : [email protected]
Format settings, CABAC : Yes
Format settings, ReFrames : 12 frames
Codec ID : V_MPEG4/ISO/AVC
Duration : 1h 39mn
Bit rate : 2 357 Kbps
Width : 1 024 pixels
Height : 552 pixels
Display aspect ratio : 1.85:1
Frame rate mode : Constant
Frame rate : 23.976 fps
Color space : YUV
Chroma subsampling : 4:2:0
Bit depth : 8 bits
Scan type : Progressive
Bits/(Pixel*Frame) : 0.174
Stream size : 1.60 GiB (73%)
Writing library : x264 core 133 r2334 a3ac64b
Encoding settings : cabac=1 / ref=12 / deblock=1:-3:-3 / analyse=0x3:0x113 / me=umh / subme=11 / psy=1 / psy_rd=1.00:0.25 / mixed_ref=1 / me_range=32 / chroma_me=1 / trellis=2 / 8x8dct=1 / cqm=0 / deadzone=21,11 / fast_pskip=1 / chroma_qp_offset=-4 / threads=12 / lookahead_threads=2 / sliced_threads=0 / nr=0 / decimate=0 / interlaced=0 / bluray_compat=0 / constrained_intra=0 / bframes=8 / b_pyramid=2 / b_adapt=2 / b_bias=0 / direct=3 / weightb=1 / open_gop=0 / weightp=2 / keyint=240 / keyint_min=23 / scenecut=40 / intra_refresh=0 / rc_lookahead=40 / rc=2pass / mbtree=1 / bitrate=2357 / ratetol=1.0 / qcomp=0.70 / qpmin=0 / qpmax=69 / qpstep=4 / cplxblur=20.0 / qblur=0.5 / vbv_maxrate=62500 / vbv_bufsize=78125 / nal_hrd=none / ip_ratio=1.40 / aq=1:1.00
Language : English
Default : No
Forced : No
Audio #1
ID : 2
Format : AC-3
Format/Info : Audio Coding 3
Mode extension : CM (complete main)
Format settings, Endianness : Big
Codec ID : A_AC3
Duration : 1h 39mn
Bit rate mode : Constant
Bit rate : 384 Kbps
Channel(s) : 6 channels
Channel positions : Front: L C R, Side: L R, LFE
Sampling rate : 48.0 KHz
Bit depth : 16 bits
Compression mode : Lossy
Stream size : 274 MiB (12%)
Title : AC3.384.Kbps (6ch) Russian (Дубляж)
Language : Russian
Default : No
Forced : No
Audio #2
ID : 3
Format : AC-3
Format/Info : Audio Coding 3
Mode extension : CM (complete main)
Format settings, Endianness : Big
Codec ID : A_AC3
Duration : 1h 39mn
Bit rate mode : Constant
Bit rate : 384 Kbps
Channel(s) : 6 channels
Channel positions : Front: L C R, Side: L R, LFE
Sampling rate : 48.0 KHz
Bit depth : 16 bits
Compression mode : Lossy
Stream size : 274 MiB (12%)
Title : AC3.384.Kbps (6ch) English
Language : English
Default : No
Forced : No
Text #1
ID : 4
Format : UTF-8
Codec ID : S_TEXT/UTF8
Codec ID/Info : UTF-8 Plain Text
Title : English (Forced)
Language : English
Default : No
Forced : No
Text #2
ID : 5
Format : UTF-8
Codec ID : S_TEXT/UTF8
Codec ID/Info : UTF-8 Plain Text
Title : English (Full)
Language : English
Default : No
Forced : No
Text #3
ID : 6
Format : UTF-8
Codec ID : S_TEXT/UTF8
Codec ID/Info : UTF-8 Plain Text
Title : English (SDH)
Language : English
Default : No
Forced : No
Text #4
ID : 7
Format : UTF-8
Codec ID : S_TEXT/UTF8
Codec ID/Info : UTF-8 Plain Text
Title : English (SDH-Colored)
Language : English
Default : No
Forced : No
Menu
00:00:00.000 : en:00:00:00.000
00:02:55.884 : en:00:02:55.884
00:06:00.151 : en:00:06:00.151
00:08:28.133 : en:00:08:28.133
00:11:32.609 : en:00:11:32.609
00:14:17.190 : en:00:14:17.190
00:17:39.600 : en:00:17:39.600
00:19:56.237 : en:00:19:56.237
00:23:08.804 : en:00:23:08.804
00:25:35.409 : en:00:25:35.409
00:29:30.310 : en:00:29:30.310
00:32:11.763 : en:00:32:11.763
00:34:16.262 : en:00:34:16.262
00:35:51.649 : en:00:35:51.649
00:38:58.044 : en:00:38:58.044
00:40:18.833 : en:00:40:18.833
00:41:43.793 : en:00:41:43.793
00:45:22.761 : en:00:45:22.761
00:48:22.649 : en:00:48:22.649
00:51:53.026 : en:00:51:53.026
00:55:18.273 : en:00:55:18.273
00:59:08.545 : en:00:59:08.545
01:04:17.020 : en:01:04:17.020
01:08:34.986 : en:01:08:34.986
01:12:20.461 : en:01:12:20.461
01:16:18.907 : en:01:16:18.907
01:17:41.490 : en:01:17:41.490
01:20:47.801 : en:01:20:47.801
01:24:02.370 : en:01:24:02.370
01:27:08.556 : en:01:27:08.556
01:30:55.908 : en:01:30:55.908
01:32:57.363 : en:01:32:57.363
Download / Скачать

Хотите скачать бесплатно? Зарегистрируйтесь на сайте (ссылка на регистрацию). Pirat.ca - самый быстрый торрент трекер в рунете!

Как скачивать  ·   Что такое торрент  ·   Рейтинг и ограничения

Гендрик

Штурман

Пост 11-Июн-2014 17:00 (спустя 4 дня)

[Q] 

Норм. Спасибо!!! Пиратка рулит!
[Профиль]  [ЛС] 

s_s

Гроза морей

Пост 14-Июн-2014 18:50 (спустя 3 дня)

[Q] 

вроде весело, беру, спасибо:)

_________________
в себе самом добра со злом
[Профиль]  [ЛС] 

loopoo

Морской Волк

Пост 21-Июн-2014 22:10 (спустя 7 дней)

[Q] 

что-то со звуком, правый канал громче левого. это у всех так?
[Профиль]  [ЛС] 

evilsan39

Корсар

1237

Пост 22-Июн-2014 00:02 (спустя 1 час 51 минута)

[Q] 

Скачаем,заценим Спасибо!!!

_________________

[Профиль]  [ЛС] 

Snoop_24

Лоцман

Пост 22-Июн-2014 00:29 (спустя 27 минут)

[Q] 

да , у меня так же
[Профиль]  [ЛС] 

E8GEN

Корсар

Пост 02-Июл-2014 17:52 (спустя 10 дней)

[Q] 

Вечер прошёл хорошо.Приятный фильмец,спасибо!
[Профиль]  [ЛС] 

Brie

Штурман

Пост 02-Июл-2014 19:37 (спустя 1 час 45 минут)

[Q] 

Спасибо, посмотрим))
[Профиль]  [ЛС] 

denmenen

Шкипер

Пост 27-Окт-2014 20:23 (спустя 3 месяца 25 дней)

[Q] 

Неординарно, юморно, шикарно!

_________________
Только дурак будет доказывать дураку, что тот дурак...
[Профиль]  [ЛС] 

Ikoka_Divo

480

Пост 13-Фев-2015 21:32 (спустя 3 месяца 17 дней)

[Q] 

посмотрела только недавно, как-то пропустила фильм в обойме выходивших тогда. так и не могу понять, очарована я или разочарована. наверное, смотря чем. игрой актёров очарована безусловно. а вот абсурд не очень люблю. но в целом всё очень мило.

_________________

[Профиль]  [ЛС] 

truck

Морской Волк

Пост 25-Фев-2015 02:36 (спустя 11 дней)

[Q] 

Пиратка рулит!
[Профиль]  [ЛС] 

Sagester

Шкипер

Пост 26-Фев-2015 18:00 (спустя 1 день 15 часов)

[Q] 

Спасибо, посмотрим
[Профиль]  [ЛС] 

Lassard

Штурман

Пост 28-Фев-2015 22:12 (спустя 2 дня 4 часа)

[Q] 

посмотрели с девушкой.
снято красиво,но сюжет - дикая жесть, закрученная, заверченная и картина к тому же очень долгая - примерно каждые полчаса мы терялись и не понимали что происходит и откуда что там на экране взялось.
дал бы 3 из 5.
[Профиль]  [ЛС] 

diozzy13

Корсар

Пост 13-Апр-2015 19:23 (спустя 1 месяц 12 дней)

[Q] 

Фильм очень рекомендую к просмотру. Картинка - отменная, режиссура впечатляет, актеры - бомба. Это настоящее европейское кино. Супер!

_________________
-Who is Zed?
-Zed is dead,baby.
[Профиль]  [ЛС] 

янка-сан

Гроза морей

Пост 20-Дек-2015 02:45 (спустя 8 месяцев 6 дней)

[Q] 

спасибо Лови бочку
[Профиль]  [ЛС] 

ku_vol

Корсар

Пост 12-Янв-2018 12:18 (спустя 2 года)

[Q] 

Фильм необычный, и этим интересный Супер!
[Профиль]  [ЛС] 

Mustafa Sazont

Корсар

Пост 13-Мар-2018 16:03 (спустя 2 месяца 1 день)

[Q] 

Классная комедия!
[Профиль]  [ЛС] 
Показать сообщения:    
Ответить на тему

Текущее время: Сегодня 22:01

Часовой пояс: GMT + 4



Вы не можете начинать темы
Вы не можете отвечать на сообщения
Вы не можете редактировать свои сообщения
Вы не можете удалять свои сообщения
Вы не можете голосовать в опросах
Вы не можете прикреплять файлы к сообщениям
Вы не можете скачивать файлы

Майнать ▼